<svg xmlns="http://www.w3.org/2000/svg">
<defs>
<font id="TofinoPersonal-Book" horiz-adv-x="0" >
  <font-face 
    font-family="Tofino Personal Book"
    font-weight="420"
    font-stretch="normal"
    units-per-em="1000"
    panose-1="0 0 5 0 0 0 0 0 0 0"
    ascent="760"
    descent="-240"
    x-height="531"
    cap-height="708"
    bbox="-706 -240 1115 1085"
    underline-thickness="50"
    underline-position="-75"
    unicode-range="U+0020-U+2661"
  />
<missing-glyph horiz-adv-x="616" 
d="M501 521q13 -9 15 -30t-11 -32q-10 -7 -24 -7q-15 0 -46 9q60 -63 60 -152q0 -87 -58 -149t-140 -62q-81 0 -139 62t-58 149q0 94 63 155q-22 31 -8 64q13 31 53 51.5t89 20.5q50 0 91.5 -21.5t55.5 -54.5l1 -2q38 12 56 -1zM297 576q-41 0 -75.5 -16.5t-44.5 -40.5
q-9 -19 4 -39q51 40 112 41q0 12 3 20q9 21 25 25q21 5 63 -33l2 -2q8 3 15 3q3 0 9 -2q-17 20 -49 32t-64 12zM319 532q-3 -8 -1 -12q5 -9 43 -14q1 -1 3 -1q1 1 1 3l3 7q-33 30 -42 28q-4 -2 -7 -11zM402 484q11 0 13 9q2 6 -1 10q-3 5 -9 6q-1 1 -4 1q-10 0 -13 -9
q-1 -3 1 -9q4 -6 9 -7zM440 485q43 -13 50 -7q4 2 2 12q0 8 -4 12q-8 6 -45 -5q-1 -1 -4 -1q0 -7 -1 -10q1 -1 2 -1zM228 482q-16 -18 -5 -41q16 -34 79.5 -61t162.5 -22q-17 65 -66 103q-5 0 -8 1q-15 5 -22 18h-1l-10 2q-35 4 -49 14q-4 1 -12 1q-36 0 -69 -15zM202 431
q-7 14 -7 30q-54 -44 -67 -112q29 -1 61 10t52 27q-27 20 -39 45zM447 318q9 12 14 16h-24q-105 0 -175 39q-46 -44 -124 -48l8 -7q16 9 57 9q50 0 71 -10q23 -11 46 0q20 10 71 10q43 0 56 -9zM124 309q0 -77 51 -132.5t122 -55.5q72 0 123 55.5t51 132.5q0 3 -0.5 8.5
t-0.5 8.5q-7 -6 -16 -18v-1q3 -28 -7 -50t-32 -25q-16 -2 -32 -2q-35 0 -47 7q-21 12 -28 45q-1 2 -1 5q-3 10 -11 10q-6 0 -9 -10q-1 -1 -1 -5q-7 -33 -29 -45q-12 -7 -47 -7q-17 0 -31 2q-22 3 -32.5 25.5t-7.5 49.5v1l-15 14v-13zM252 247q17 10 22 37q3 13 -2 20l-2 2
h-1q-18 10 -66 10q-18 0 -30.5 -2t-17 -4.5t-4.5 -3.5q-2 -21 5 -40.5t24 -21.5q16 -2 30 -2q32 0 42 5zM383 242q15 0 31 2q17 2 24 22t5 40q-5 10 -52 10q-48 0 -66 -10q-1 0 -1 -1l-2 -1q-5 -7 -2 -20q3 -26 22 -37q10 -5 41 -5zM226 294q11 -6 11 -21q0 -10 -7 -17

<glyph glyph-name="f_f" unicode="ff" horiz-adv-x="618" 
d="M105 0v473h-73v58h73v42q0 89 33.5 138t126.5 49l55 -1v-60h-38q-65 0 -88 -32t-23 -102v-34h233v42q0 42 6.5 73t23 58.5t49.5 41.5t81 14l55 -1v-60h-38q-65 0 -88 -32t-23 -102v-34h144v-58h-144v-473h-66v473h-233v-473h-66z" />
    <glyph glyph-name="f_f_i" unicode="ffi" horiz-adv-x="844" 
d="M105 0v473h-73v58h73v42q0 89 33.5 138t126.5 49l55 -1v-60h-38q-65 0 -88 -32t-23 -102v-34h233v42q0 42 6.5 73t23 58.5t49.5 41.5t81 14l55 -1v-60h-38q-65 0 -88 -32t-23 -102v-34h143v-58h-143v-473h-66v473h-233v-473h-66zM698 642v112h66v-112h-66zM698 0v535h66
v-535h-66z" />
    <glyph glyph-name="f_f_l" unicode="ffl" horiz-adv-x="848" 
d="M105 0v473h-73v58h73v42q0 89 33.5 138t126.5 49l55 -1v-60h-38q-65 0 -88 -32t-23 -102v-34h233v42q0 42 6.5 73t23 58.5t49.5 41.5t81 14l55 -1v-60h-38q-65 0 -88 -32t-23 -102v-34h144v-58h-144v-473h-66v473h-233v-473h-66zM700 0v752h66v-752h-66z" />
    <glyph glyph-name=".notdef" horiz-adv-x="616" 
d="M501 521q13 -9 15 -30t-11 -32q-10 -7 -24 -7q-15 0 -46 9q60 -63 60 -152q0 -87 -58 -149t-140 -62q-81 0 -139 62t-58 149q0 94 63 155q-22 31 -8 64q13 31 53 51.5t89 20.5q50 0 91.5 -21.5t55.5 -54.5l1 -2q38 12 56 -1zM297 576q-41 0 -75.5 -16.5t-44.5 -40.5
q-9 -19 4 -39q51 40 112 41q0 12 3 20q9 21 25 25q21 5 63 -33l2 -2q8 3 15 3q3 0 9 -2q-17 20 -49 32t-64 12zM319 532q-3 -8 -1 -12q5 -9 43 -14q1 -1 3 -1q1 1 1 3l3 7q-33 30 -42 28q-4 -2 -7 -11zM402 484q11 0 13 9q2 6 -1 10q-3 5 -9 6q-1 1 -4 1q-10 0 -13 -9
q-1 -3 1 -9q4 -6 9 -7zM440 485q43 -13 50 -7q4 2 2 12q0 8 -4 12q-8 6 -45 -5q-1 -1 -4 -1q0 -7 -1 -10q1 -1 2 -1zM228 482q-16 -18 -5 -41q16 -34 79.5 -61t162.5 -22q-17 65 -66 103q-5 0 -8 1q-15 5 -22 18h-1l-10 2q-35 4 -49 14q-4 1 -12 1q-36 0 -69 -15zM202 431
q-7 14 -7 30q-54 -44 -67 -112q29 -1 61 10t52 27q-27 20 -39 45zM447 318q9 12 14 16h-24q-105 0 -175 39q-46 -44 -124 -48l8 -7q16 9 57 9q50 0 71 -10q23 -11 46 0q20 10 71 10q43 0 56 -9zM124 309q0 -77 51 -132.5t122 -55.5q72 0 123 55.5t51 132.5q0 3 -0.5 8.5
t-0.5 8.5q-7 -6 -16 -18v-1q3 -28 -7 -50t-32 -25q-16 -2 -32 -2q-35 0 -47 7q-21 12 -28 45q-1 2 -1 5q-3 10 -11 10q-6 0 -9 -10q-1 -1 -1 -5q-7 -33 -29 -45q-12 -7 -47 -7q-17 0 -31 2q-22 3 -32.5 25.5t-7.5 49.5v1l-15 14v-13zM252 247q17 10 22 37q3 13 -2 20l-2 2
h-1q-18 10 -66 10q-18 0 -30.5 -2t-17 -4.5t-4.5 -3.5q-2 -21 5 -40.5t24 -21.5q16 -2 30 -2q32 0 42 5zM383 242q15 0 31 2q17 2 24 22t5 40q-5 10 -52 10q-48 0 -66 -10q-1 0 -1 -1l-2 -1q-5 -7 -2 -20q3 -26 22 -37q10 -5 41 -5zM226 294q11 -6 11 -21q0 -10 -7 -17
t-17 -7t-17 7t-7 17q0 5 1 8l-11 9q-3 2 0 5q2 2 5 0l9 -8l3 4l-6 11q-1 1 -0.5 2.5t1.5 2.5q3 2 5 -2l6 -10l4 2l-2 12q0 4 4 4q2 0 4 -3l1 -12q1 0 3 -0.5t3 -0.5l3 13q2 3 5 3q4 -2 2 -5zM414 295q1 1 2.5 1t2.5 -1q2 -4 -1 -5l-10 -10q0 -1 0.5 -3t0.5 -4
q0 -10 -7.5 -17t-17.5 -7t-17 7t-7 17q0 14 12 21l-4 14q0 4 3 5q4 0 4 -3l3 -13q2 1 6 1l2 12q0 3 4 3q3 0 3 -4l-2 -12l5 -2l6 10q2 4 4 2q1 -1 2 -2.5t0 -2.5l-7 -11q3 -1 3 -4zM296 143q23 0 38.5 10.5t15.5 26.5q0 15 -16 25.5t-38 10.5t-38 -10.5t-16 -25.5
q0 -16 15.5 -26.5t38.5 -10.5z" />
    <glyph glyph-name=".null" 
 />
    <glyph glyph-name="nonmarkingreturn" horiz-adv-x="333" 
 />
    <glyph glyph-name="space" unicode=" " horiz-adv-x="214" 
 />
    <glyph glyph-name="exclam" unicode="!" horiz-adv-x="231" 
d="M84 163l-1 545h66l-2 -545h-63zM83 0v108h66v-108h-66z" />
    <glyph glyph-name="quotedbl" unicode="&#x22;" horiz-adv-x="278" 
d="M55 573l-11 185h73l-11 -185h-51zM173 573l-11 185h72l-11 -185h-50z" />
    <glyph glyph-name="numbersign" unicode="#" horiz-adv-x="703" 
d="M121 0l40 204h-103v52h114l41 208h-108v52h119l37 186h54l-37 -186h186l37 186h54l-37 -186h103v-52h-114l-41 -208h108v-52h-119l-40 -204h-54l40 204h-186l-40 -204h-54zM226 256h186l41 208h-186z" />
    <glyph glyph-name="dollar" unicode="$" horiz-adv-x="558" 
d="M249 -51v89q-200 17 -200 204h59q0 -134 141 -148v255q-44 11 -73 22t-59.5 31t-45.5 51t-15 74q0 74 48.5 119.5t144.5 49.5v71h62v-73q102 -8 144 -55t42 -129h-60q0 24 -4.5 42.5t-16.5 38t-38.5 32t-66.5 16.5v-249q46 -12 75 -23t61.5 -31t48.5 -51.5t16 -74.5
q0 -161 -201 -172v-89h-62zM115 528q0 -50 34.5 -77t99.5 -45v234q-134 -8 -134 -112zM452 209q0 52 -36 78.5t-105 45.5v-241q141 7 141 117z" />
    <glyph glyph-name="percent" unicode="%" horiz-adv-x="760" 
d="M347 540q0 -83 -35.5 -127t-119.5 -44q-156 0 -156 171q0 175 156 175q84 0 119.5 -45t35.5 -130zM107 0l460 702h66l-460 -702h-66zM88 540q0 -63 24.5 -94t79.5 -31t79 31t24 94q0 64 -24 96.5t-79 32.5q-104 0 -104 -129zM702 158q0 -83 -36 -127t-119 -44
q-156 0 -156 171q0 175 156 175q83 0 119 -45.5t36 -129.5zM442 158q0 -125 105 -125q55 0 79 31t24 94q0 129 -103 129q-105 0 -105 -129z" />
    <glyph glyph-name="ampersand" unicode="&#x26;" horiz-adv-x="709" 
d="M355 725q184 0 184 -177h-63q0 126 -121 126q-129 0 -129 -121q0 -27 5.5 -49t24.5 -49t30 -40t49 -53l54 -57l145 -155q29 74 29 211h58q0 -164 -47 -253l89 -94v-16h-64l-59 62q-71 -77 -224 -77q-240 0 -240 217q0 50 15 89.5t39.5 63t45 35.5t42.5 20q-54 69 -54 150
q0 167 191 167zM251 370q-115 -43 -115 -170q0 -168 191 -168q124 0 177 66l-179 193z" />
    <glyph glyph-name="quotesingle" unicode="'" horiz-adv-x="161" 
d="M55 573l-11 185h73l-11 -185h-51z" />
    <glyph glyph-name="parenleft" unicode="(" horiz-adv-x="286" 
d="M78 277q0 82 10.5 162t26 135.5t31 99.5t26.5 65l10 21h62l-11 -23t-25 -65t-32 -103t-25 -133t-11 -159t11 -157t26.5 -133t31 -98t26.5 -65l11 -21h-62l-11.5 21t-25.5 61t-32 98.5t-25.5 131.5t-11.5 162z" />
    <glyph glyph-name="parenright" unicode=")" horiz-adv-x="286" 
d="M104 760l11 -22.5t25 -63t32 -101t25 -133.5t11 -163t-11 -161.5t-26.5 -133.5t-31 -96t-26.5 -62l-11 -21h-62l11.5 22.5t25.5 62.5t32 100t25.5 131t11.5 158t-10.5 158t-26 135t-31 100.5t-26.5 67.5l-10 22h62z" />
    <glyph glyph-name="asterisk" unicode="*" horiz-adv-x="369" 
d="M60 621l15 44l88 -32l-3 92h48l-2 -92l87 32l15 -44l-88 -27l64 -75l-39 -31l-61 78l-60 -78l-39 31l64 75z" />
    <glyph glyph-name="plus" unicode="+" horiz-adv-x="467" 
d="M38 342h165v165h61v-165h165v-61h-165v-164h-61v164h-165v61z" />
    <glyph glyph-name="comma" unicode="," horiz-adv-x="203" 
d="M26 -98q22 47 37 118q7 32 10 57.5t3 35.5v10h63q1 -37 -17 -107q-8 -32 -20 -60.5t-20 -41.5l-7 -12h-49z" />
    <glyph glyph-name="hyphen" unicode="-" horiz-adv-x="376" 
d="M73 292v54h230v-54h-230z" />
    <glyph glyph-name="period" unicode="." horiz-adv-x="191" 
d="M61 0v123h69v-123h-69z" />
    <glyph glyph-name="slash" unicode="/" horiz-adv-x="459" 
d="M52 -40l310 840h61l-310 -840h-61z" />
    <glyph glyph-name="zero" unicode="0" horiz-adv-x="627" 
d="M573 350q0 -192 -59.5 -276.5t-199.5 -84.5q-141 0 -200.5 84.5t-59.5 276.5q0 193 59.5 278t200.5 85q140 0 199.5 -85t59.5 -278zM122 350q0 -165 45 -232t147 -67t146.5 67t44.5 232t-44.5 233t-146.5 68t-147 -68t-45 -233z" />
    <glyph glyph-name="one" unicode="1" horiz-adv-x="311" 
d="M135 0v624l-132 -60v71l153 70h45v-705h-66z" />
    <glyph glyph-name="two" unicode="2" horiz-adv-x="520" 
d="M21 5v66q95 71 200 166q51 46 76 70.5t54 61t40.5 71t11.5 75.5q0 61 -39.5 98t-114.5 37q-70 0 -114 -41.5t-44 -105.5h-67q0 92 60 151t164 59q112 0 167.5 -54.5t55.5 -138.5q0 -41 -10.5 -78t-23.5 -63.5t-43 -61t-49.5 -54t-62.5 -59.5q-52 -48 -163 -140l361 3v-62
h-459z" />
    <glyph glyph-name="three" unicode="3" horiz-adv-x="548" 
d="M266 448q117 -6 176 -63t59 -159q0 -237 -246 -237q-121 0 -179.5 57.5t-58.5 142.5h67q0 -60 44.5 -99.5t125.5 -39.5q176 0 176 180q0 79 -50.5 122t-134.5 43q-18 0 -40 -2t-35 -4l-14 -2v52l235 197h-339v63h434v-63z" />
    <glyph glyph-name="four" unicode="4" horiz-adv-x="542" 
d="M373 0v156h-365v60l330 487h100v-487h84v-60h-84v-156h-65zM373 216v444l-291 -444h291z" />
    <glyph glyph-name="five" unicode="5" horiz-adv-x="575" 
d="M180 631l-37 -218q57 48 173 48q107 0 164 -65.5t57 -171.5q0 -109 -60 -172t-186 -63t-188.5 56t-62.5 136h71q0 -57 46.5 -94.5t133.5 -37.5t132 44.5t45 130.5q0 85 -46 132t-123 47q-38 0 -69 -7.5t-49 -17.5t-30.5 -20.5t-16.5 -17.5l-5 -8h-65l60 363h375v-60z" />
    <glyph glyph-name="six" unicode="6" horiz-adv-x="605" 
d="M561 226q0 -237 -252 -237q-136 -1 -195.5 76.5t-59.5 245.5q0 221 59 312.5t196 91.5q62 0 108 -18.5t70.5 -48.5t36 -61.5t11.5 -64.5h-68q0 54 -38.5 93.5t-118.5 39.5q-90 0 -133 -61t-52 -218q67 92 205 92q118 0 174.5 -65.5t56.5 -176.5zM317 407q-44 0 -80 -13
t-58.5 -34.5t-35 -39t-20.5 -36.5q4 -126 49 -181t137 -55q182 0 182 180q0 179 -174 179z" />
    <glyph glyph-name="seven" unicode="7" horiz-adv-x="467" 
d="M121 0q0 98 27.5 199.5t66.5 176t77.5 135t65.5 91.5l28 31l-385 2v64h462v-66l-29.5 -33.5t-66 -90.5t-83.5 -139.5t-65.5 -172.5t-29.5 -197h-68z" />
    <glyph glyph-name="eight" unicode="8" horiz-adv-x="597" 
d="M298 -11q-253 0 -253 203q0 48 15.5 85t38 57t42.5 30t35 11q-30 4 -69 41.5t-39 105.5q0 193 230 193t230 -193q0 -37 -13 -67t-32 -46t-35.5 -24.5t-27.5 -9.5q15 -1 34.5 -11.5t42.5 -30t38.5 -57t15.5 -84.5q0 -203 -253 -203zM298 660q-162 0 -162 -142
q0 -55 41.5 -86.5t120.5 -31.5t121 31.5t42 86.5q0 142 -163 142zM298 344q-88 0 -134.5 -38t-46.5 -108q0 -148 181 -148q91 0 136 36t45 112q0 70 -46 108t-135 38z" />
    <glyph glyph-name="nine" unicode="9" horiz-adv-x="610" 
d="M555 373q0 -217 -57.5 -300.5t-199.5 -83.5q-66 0 -115.5 18.5t-76 48t-39 61t-12.5 63.5h68q0 -52 44 -92t131 -40q91 0 133.5 53.5t51.5 205.5q-68 -93 -202 -93q-233 0 -233 262q0 109 64.5 174t187.5 65q138 0 196.5 -79t58.5 -263zM292 275q44 0 80 13t58 35
t34.5 39.5t20.5 36.5q-3 141 -47.5 198.5t-137.5 57.5q-84 0 -133 -47t-49 -134q0 -97 44.5 -148t129.5 -51z" />
    <glyph glyph-name="colon" unicode=":" horiz-adv-x="223" 
d="M77 389v122h69v-122h-69zM77 34v124h69v-124h-69z" />
    <glyph glyph-name="semicolon" unicode=";" horiz-adv-x="228" 
d="M75 355v123h69v-123h-69zM28 -98q22 47 37 118q7 32 10 57.5t3 35.5v10h64q0 -37 -18 -107q-8 -32 -20 -60.5t-20 -41.5l-7 -12h-49z" />
    <glyph glyph-name="less" unicode="&#x3c;" horiz-adv-x="506" 
d="M430 151l-374 132v71l374 133v-61l-320 -108l320 -107v-60z" />
    <glyph glyph-name="equal" unicode="=" horiz-adv-x="497" 
d="M58 344v62h381v-62h-381zM58 201v61h381v-61h-381z" />
    <glyph glyph-name="greater" unicode="&#x3e;" horiz-adv-x="506" 
d="M76 150v61l320 107l-320 108v60l374 -133v-71z" />
    <glyph glyph-name="question" unicode="?" horiz-adv-x="506" 
d="M268 158h-66l1 40q0 44 12 77t30 51t39 37l39 35.5t30 46t12 69.5q0 141 -130 141q-131 0 -131 -150h-65q0 209 196 209q103 0 151.5 -51.5t48.5 -144.5q0 -52 -17 -89t-41 -58l-48.5 -41.5t-42 -53t-18.5 -78.5v-40zM202 0v104h66v-104h-66z" />
    <glyph glyph-name="at" unicode="@" horiz-adv-x="858" 
d="M604 -97q-76 -28 -177 -28q-102 0 -176 30t-116.5 86t-62 127t-19.5 161q0 89 20 161t62.5 130.5t116.5 90.5t175 32q378 0 378 -414q0 -143 -32.5 -202.5t-106.5 -59.5q-93 0 -110 109q-47 -69 -150 -69q-171 0 -171 222q0 224 171 224q87 0 146 -66l3 56h50v-300
q0 -133 68 -133q26 0 42 16.5t26 66t10 136.5q0 365 -324 365q-86 0 -149 -27.5t-100 -77.5t-54 -114.5t-17 -145.5q0 -356 321 -356q111 0 176 32v-52zM414 107q101 0 137 79v190q-44 77 -137 77q-61 0 -91.5 -45.5t-30.5 -128.5q0 -172 122 -172z" />
    <glyph glyph-name="A" unicode="A" horiz-adv-x="648" 
d="M12 0l276 708h72l276 -708h-74l-69 184h-340l-68 -184h-73zM176 248h294l-147 396z" />
    <glyph glyph-name="B" unicode="B" horiz-adv-x="656" 
d="M84 711h235q148 0 205 -44.5t57 -132.5q0 -127 -104 -163q124 -38 124 -178q0 -53 -10.5 -86.5t-40 -60t-86.5 -38t-147 -11.5h-233v714zM152 654v-252l203 -1q87 0 123 30.5t36 95.5q0 66 -43 96.5t-148 30.5h-171zM152 341v-287h171q123 0 167 31t44 112
q0 144 -179 144h-203z" />
    <glyph glyph-name="C" unicode="C" horiz-adv-x="651" 
d="M601 229q-4 -124 -67.5 -185t-192.5 -61q-156 0 -222 92t-66 278q0 187 66 279.5t222 92.5q257 0 262 -255h-67q-7 192 -195 192q-117 0 -168 -75t-51 -234t51 -233t168 -74q184 0 193 183h67z" />
    <glyph glyph-name="D" unicode="D" horiz-adv-x="676" 
d="M84 711h217q99 0 163 -21t98.5 -68.5t47.5 -109.5t13 -158t-13 -158t-47.5 -109.5t-98.5 -68.5t-163 -21h-217v714zM152 649v-591h160q137 -1 189.5 66t52.5 230t-52.5 229t-189.5 66h-160z" />
    <glyph glyph-name="E" unicode="E" horiz-adv-x="562" 
d="M84 0v708h445v-63h-377v-246h327v-61h-327v-275h382v-63h-450z" />
    <glyph glyph-name="F" unicode="F" horiz-adv-x="536" 
d="M84 0v708h442v-63h-374v-261h324v-61h-324v-323h-68z" />
    <glyph glyph-name="G" unicode="G" horiz-adv-x="656" 
d="M594 80q0 -4 -9 -14.5t-29.5 -24.5t-49 -27t-73 -22t-94.5 -9q-155 0 -220.5 91.5t-65.5 277.5q0 187 65.5 280t220.5 93q127 0 192 -64.5t65 -170.5h-66q-1 75 -51.5 123.5t-139.5 48.5q-116 0 -166.5 -75.5t-50.5 -234.5q0 -160 51 -234.5t168 -74.5q55 0 101.5 14.5
t67.5 30.5t21 25v168h-154v62h217v-263z" />
    <glyph glyph-name="H" unicode="H" horiz-adv-x="687" 
d="M84 0v708h68v-308h383v308h68v-708h-68v337h-383v-337h-68z" />
    <glyph glyph-name="I" unicode="I" horiz-adv-x="236" 
d="M84 0v708h68v-708h-68z" />
    <glyph glyph-name="J" unicode="J" horiz-adv-x="357" 
d="M286 269q0 -81 -7.5 -126.5t-32 -81t-70.5 -48.5t-124 -13h-51v67h51q103 0 134 41.5t31 160.5l1 439h68v-439z" />
    <glyph glyph-name="K" unicode="K" horiz-adv-x="620" 
d="M84 0v708h68v-438l367 438h87l-251 -294l253 -414h-79l-219 361l-158 -187v-174h-68z" />
    <glyph glyph-name="L" unicode="L" horiz-adv-x="498" 
d="M84 0v708h68v-644h332v-64h-400z" />
    <glyph glyph-name="M" unicode="M" horiz-adv-x="888" 
d="M84 0v708h94l262 -640l267 640h97l-1 -708h-67l4 625l-267 -625h-66l-263 625l5 -625h-65z" />
    <glyph glyph-name="N" unicode="N" horiz-adv-x="714" 
d="M148 619v-619h-64l4 708h72l408 -615l-3 615h65v-708h-72z" />
    <glyph glyph-name="O" unicode="O" horiz-adv-x="690" 
d="M637 353q0 -186 -67 -278t-225 -92q-159 0 -225.5 92t-66.5 278q0 187 66.5 279.5t225.5 92.5q158 0 225 -92.5t67 -279.5zM122 353q0 -159 51.5 -233t171.5 -74t171.5 74t51.5 233q0 160 -51.5 234.5t-171.5 74.5t-171.5 -74.5t-51.5 -234.5z" />
    <glyph glyph-name="P" unicode="P" horiz-adv-x="635" 
d="M84 0v711h226q157 0 223.5 -48.5t66.5 -178.5t-66.5 -178.5t-224.5 -48.5h-157v-257h-68zM152 651v-332l167 -1q54 0 88 5.5t64.5 22t44.5 50.5t14 88t-14 88.5t-44.5 51t-64.5 22t-88 5.5h-167z" />
    <glyph glyph-name="Q" unicode="Q" horiz-adv-x="699" 
d="M637 353q0 -221 -93 -307l115 -97l-51 -47l-116 110q-60 -29 -147 -29q-159 0 -225.5 92t-66.5 278q0 187 66.5 279.5t225.5 92.5q158 0 225 -92.5t67 -279.5zM122 353q0 -159 51.5 -233t171.5 -74t171.5 74t51.5 233q0 160 -51.5 234.5t-171.5 74.5t-171.5 -74.5
t-51.5 -234.5z" />
    <glyph glyph-name="R" unicode="R" horiz-adv-x="654" 
d="M84 0v711h242q148 0 211.5 -45t63.5 -170q0 -96 -36.5 -143t-115.5 -62l162 -291h-74l-154 283q-18 -1 -59 -1h-172v-282h-68zM152 649v-305l168 -1q55 0 88.5 4.5t64 20t44.5 47t14 81.5q0 41 -10 69.5t-26.5 44.5t-45 25t-57 11.5t-72.5 2.5h-168z" />
    <glyph glyph-name="S" unicode="S" horiz-adv-x="618" 
d="M572 178q0 -98 -67 -147.5t-194 -47.5q-262 2 -262 231h67q0 -169 197 -170q191 -3 191 132q0 43 -24.5 72.5t-64 45t-87.5 27.5t-95.5 26t-87 34.5t-64 59t-24.5 93.5q0 90 62.5 141t186.5 50q137 -1 193.5 -55t56.5 -154h-67q0 30 -6.5 52.5t-24 45.5t-56.5 36t-96 14
q-97 1 -139.5 -35.5t-42.5 -92.5q0 -42 24.5 -71t64 -44.5t87.5 -27.5t96 -26.5t87.5 -35t64 -59.5t24.5 -94z" />
    <glyph glyph-name="T" unicode="T" horiz-adv-x="550" 
d="M237 0l3 645h-231v63h532v-63h-233l-3 -645h-68z" />
    <glyph glyph-name="U" unicode="U" horiz-adv-x="678" 
d="M607 347q0 -74 -5.5 -126t-22.5 -99.5t-46.5 -76.5t-77.5 -45.5t-116 -16.5t-116 16.5t-77.5 45.5t-46.5 76.5t-22.5 99.5t-5.5 126v361h68v-357q0 -162 41.5 -233t158.5 -71q116 0 157.5 71t41.5 233v357h69v-361z" />
    <glyph glyph-name="V" unicode="V" horiz-adv-x="606" 
d="M4 708h75l226 -650l224 650h73l-257 -708h-82z" />
    <glyph glyph-name="W" unicode="W" horiz-adv-x="950" 
d="M476 633l-168 -633h-81l-212 708h77l177 -643l168 643h76l175 -642l173 642h74l-209 -708h-80z" />
    <glyph glyph-name="X" unicode="X" horiz-adv-x="617" 
d="M306 308l-213 -308h-78l250 353l-249 355h76l216 -310l215 310h77l-252 -354l248 -354h-77z" />
    <glyph glyph-name="Y" unicode="Y" horiz-adv-x="592" 
d="M266 0v235l-254 473h78l209 -413l201 413h80l-247 -473v-235h-67z" />
    <glyph glyph-name="Z" unicode="Z" horiz-adv-x="536" 
d="M19 4v58l410 584h-391v58h472v-58l-412 -584h416v-58h-495z" />
    <glyph glyph-name="bracketleft" unicode="[" horiz-adv-x="340" 
d="M100 -197v957h210v-53h-150v-850h150v-54h-210z" />
    <glyph glyph-name="backslash" unicode="\" horiz-adv-x="475" 
d="M423 -40h-61l-310 840h61z" />
    <glyph glyph-name="bracketright" unicode="]" horiz-adv-x="340" 
d="M240 -197h-210v54h150v850h-150v53h210v-957z" />
    <glyph glyph-name="asciicircum" unicode="^" horiz-adv-x="411" 
d="M355 467h-51l-97 221l-98 -221h-51l127 271h43z" />
    <glyph glyph-name="underscore" unicode="_" horiz-adv-x="568" 
d="M80 0v51h408v-51h-408z" />
    <glyph glyph-name="grave" unicode="`" horiz-adv-x="293" 
d="M203 634h-60l-85 136h72z" />
    <glyph glyph-name="a" unicode="a" horiz-adv-x="572" 
d="M444 1l-10 73q-65 -85 -197 -85q-185 0 -185 164q0 93 57.5 132t168.5 39q89 0 150 -9q-1 52 -5.5 80.5t-19 52t-42.5 32t-76 8.5q-151 0 -151 -115h-61q0 171 209 171q32 0 58 -2.5t46 -10t35.5 -14.5t27 -21.5l19.5 -24.5t13 -31t7.5 -33.5t4 -39.5t1.5 -41.5v-45.5
v-15v-130l11 -134h-61zM249 47q79 0 129 38t50 80v94q-67 8 -135 8q-88 0 -130.5 -25t-42.5 -86q0 -109 129 -109z" />
    <glyph glyph-name="b" unicode="b" horiz-adv-x="591" 
d="M73 0l10 140v612h65v-291q65 83 183 83q207 0 207 -279q0 -274 -209 -274q-136 0 -189 89l-10 -80h-57zM317 484q-108 0 -169 -94v-243q50 -95 169 -95q155 0 155 213q0 219 -155 219z" />
    <glyph glyph-name="c" unicode="c" horiz-adv-x="551" 
d="M504 172q-2 -86 -56 -134.5t-164 -48.5q-127 0 -179 70t-52 207t52.5 208.5t178.5 71.5q217 0 220 -202h-65q-1 145 -155 145q-89 0 -126 -55t-37 -168q0 -114 37 -167t126 -53q152 0 154 126h66z" />
    <glyph glyph-name="d" unicode="d" horiz-adv-x="585" 
d="M461 0l-11 81q-49 -90 -188 -90q-209 0 -209 274q0 279 207 279q115 0 183 -83v291h65v-612l10 -140h-57zM274 52q119 0 169 94v244q-21 35 -63 64.5t-106 29.5q-155 0 -155 -219q0 -213 155 -213z" />
    <glyph glyph-name="e" unicode="e" horiz-adv-x="565" 
d="M512 159q0 -25 -9 -50.5t-31 -54t-70.5 -47t-115.5 -18.5q-126 0 -179.5 70.5t-53.5 206.5q0 137 53.5 208.5t179.5 71.5q124 0 177 -69.5t53 -221.5h-395q2 -108 40 -158t125 -50q58 0 96 21t50.5 44.5t12.5 46.5h67zM286 489q-79 0 -118 -43t-46 -132h324
q-8 93 -46.5 134t-113.5 41z" />
    <glyph glyph-name="f" unicode="f" horiz-adv-x="319" 
d="M320 760v-61h-38q-65 0 -88 -32t-23 -102v-34h144v-59h-144v-472h-66v472h-73v59h73v42q0 89 33.5 138t126.5 49h55z" />
    <glyph glyph-name="g" unicode="g" horiz-adv-x="585" 
d="M508 -1q0 -30 -1 -49.5t-5.5 -47.5t-13 -45.5t-25 -38t-40 -32t-59.5 -19t-82 -7.5q-62 0 -106.5 19.5t-63.5 47t-29 55t-10 46.5v20l70 1q0 -89 70 -120q29 -13 69 -13q44 0 75 10.5t47.5 25.5t25.5 42t11 49t2 58v68q-54 -78 -181 -78q-209 0 -209 274q0 279 207 279
q52 0 96 -19.5t62 -37t31 -35.5l11 83h58l-10 -135v-401zM274 52q119 0 169 94v244q-21 35 -63 64.5t-106 29.5q-155 0 -155 -219q0 -213 155 -213z" />
    <glyph glyph-name="h" unicode="h" horiz-adv-x="585" 
d="M83 0v752h66v-299q63 90 193 90q91 0 133.5 -52t42.5 -174v-317h-66v320q0 82 -29.5 121.5t-102.5 39.5q-64 0 -106 -33t-65 -74v-374h-66z" />
    <glyph glyph-name="i" unicode="i" horiz-adv-x="227" 
d="M80 642v113h67v-113h-67zM80 0v535h66v-535h-66z" />
    <glyph glyph-name="j" unicode="j" horiz-adv-x="236" 
d="M89 642v113h67v-113h-67zM155 43q0 -34 -0.5 -52.5t-3 -44.5t-7.5 -39.5t-13.5 -30.5t-22 -25.5t-32.5 -17t-45 -11.5t-60 -3v63q25 0 43.5 3.5t31.5 8t21 16.5t12.5 21t6.5 30.5t2.5 36t0.5 45.5v492h66v-492z" />
    <glyph glyph-name="k" unicode="k" horiz-adv-x="501" 
d="M83 0v752h64v-514l248 297h76l-171 -200l198 -335h-75l-165 285l-111 -130v-155h-64z" />
    <glyph glyph-name="l" unicode="l" horiz-adv-x="231" 
d="M83 0v752h66v-752h-66z" />
    <glyph glyph-name="m" unicode="m" horiz-adv-x="919" 
d="M83 0v396l-10 139h57l11 -86q62 94 189 94q120 0 153 -103q22 39 70 71t127 32q88 0 130 -52.5t42 -173.5v-317h-64v320q0 82 -28.5 121.5t-98.5 39.5q-106 0 -165 -103q3 -27 3 -61v-317h-61v320q0 82 -29 121.5t-97 39.5q-104 0 -163 -103v-378h-66z" />
    <glyph glyph-name="n" unicode="n" horiz-adv-x="584" 
d="M83 0v396l-10 139h57l12 -91q62 99 199 99q91 0 133.5 -52t42.5 -175v-316h-66v318q0 84 -29.5 123.5t-102.5 39.5q-110 0 -170 -105v-376h-66z" />
    <glyph glyph-name="o" unicode="o" horiz-adv-x="576" 
d="M523 266q0 -138 -52.5 -207.5t-182.5 -69.5q-131 0 -183 69.5t-52 207.5q0 139 52.5 209.5t182.5 70.5q130 1 182.5 -70t52.5 -210zM121 266q0 -115 37 -167.5t130 -52.5t130 52.5t37 167.5t-37 169t-130 54t-130 -54t-37 -169z" />
    <glyph glyph-name="p" unicode="p" horiz-adv-x="591" 
d="M83 -240v640l-10 135h57l11 -83q11 17 28.5 34t62.5 37.5t99 20.5q207 0 207 -279q0 -274 -209 -274q-125 0 -181 78v-309h-65zM317 484q-108 0 -169 -94v-245q49 -93 169 -93q154 0 154 213q0 219 -154 219z" />
    <glyph glyph-name="q" unicode="q" horiz-adv-x="585" 
d="M443 -240v309q-54 -78 -181 -78q-209 0 -209 274q0 279 207 279q122 0 188 -90l13 81h57l-10 -116v-659h-65zM274 52q119 0 169 94v244q-21 35 -63 64.5t-106 29.5q-155 0 -155 -219q0 -213 155 -213z" />
    <glyph glyph-name="r" unicode="r" horiz-adv-x="356" 
d="M83 0v384l-10 151h57l12 -105q7 18 19.5 34.5t34.5 36.5t58.5 32t81.5 12v-62q-49 0 -86.5 -17.5t-57.5 -45.5t-29.5 -48t-13.5 -39v-333h-66z" />
    <glyph glyph-name="s" unicode="s" horiz-adv-x="517" 
d="M478 140q0 -154 -220 -151q-105 1 -161.5 47.5t-56.5 133.5h66q0 -58 39 -89.5t113 -32.5q152 -3 152 96q1 41 -35.5 63.5t-89.5 32.5t-105.5 22.5t-90 46t-38.5 90.5q-1 70 52 109t158 38q102 -1 152.5 -44.5t50.5 -125.5h-66q0 53 -31 82.5t-105 30.5q-144 3 -144 -94
q0 -32 26.5 -52.5t66.5 -28t87 -19t87 -25t66.5 -47t26.5 -83.5z" />
    <glyph glyph-name="t" unicode="t" horiz-adv-x="316" 
d="M301 -2h-44q-45 0 -76 11t-48.5 27.5t-26.5 45.5t-11.5 55.5t-2.5 66.5v272h-68v59h68v158l66 13v-171h140v-59h-140v-270q0 -76 19.5 -111t83.5 -35h40v-62z" />
    <glyph glyph-name="u" unicode="u" horiz-adv-x="582" 
d="M457 0l-13 104q-8 -16 -21 -32t-36.5 -35.5t-61.5 -32t-84 -12.5q-91 0 -133.5 52t-42.5 174l1 317h65v-319q0 -82 30 -122t102 -40q38 0 70 13t53 34.5t33 39t20 35.5v359h66v-387l10 -148h-58z" />
    <glyph glyph-name="v" unicode="v" horiz-adv-x="502" 
d="M9 535h74l167 -473l170 473h73l-208 -535h-71z" />
    <glyph glyph-name="w" unicode="w" horiz-adv-x="781" 
d="M389 464l-134 -464h-76l-171 535h71l137 -468l135 468h78l142 -469l131 469h71l-165 -535h-77z" />
    <glyph glyph-name="x" unicode="x" horiz-adv-x="491" 
d="M245 219l-154 -219h-79l194 266l-196 269h81l156 -222l157 222h79l-196 -269l193 -266h-81z" />
    <glyph glyph-name="y" unicode="y" horiz-adv-x="502" 
d="M163 -223l76 223h-29l-201 535h74l173 -486l167 486h70l-268 -758h-62z" />
    <glyph glyph-name="z" unicode="z" horiz-adv-x="429" 
d="M18 4v60l315 408l-305 -1v60h380v-59l-316 -408h316v-60h-390z" />
    <glyph glyph-name="braceleft" unicode="{" horiz-adv-x="390" 
d="M163 605q0 50 6 77t27.5 47t59.5 26.5t104 6.5v-52q-85 0 -109 -24t-24 -98v-226q0 -61 -50 -78q3 -1 7 -2.5t12 -7t14.5 -13.5t11.5 -22.5t5 -31.5v-227q0 -73 24 -96.5t109 -23.5v-52q-66 0 -104 7t-59.5 27t-27.5 47.5t-6 77.5v238q0 32 -16.5 44t-70.5 12v48
q54 0 70.5 11.5t16.5 43.5v241z" />
    <glyph glyph-name="bar" unicode="|" horiz-adv-x="215" 
d="M83 -195v1015h50v-1015h-50z" />
    <glyph glyph-name="braceright" unicode="}" horiz-adv-x="390" 
d="M227 -35q0 -50 -6 -77t-27.5 -47t-59.5 -26.5t-104 -6.5v52q86 0 109.5 24t23.5 98v226q0 27 12.5 46t21 24t16.5 7q-6 1 -15.5 6t-22 24.5t-12.5 47.5v227q0 72 -24 96t-109 24v52q66 0 104 -7t59.5 -27t27.5 -47.5t6 -77.5v-238q0 -32 16.5 -44t70.5 -12v-48
q-54 0 -70.5 -11.5t-16.5 -43.5v-241z" />
    <glyph glyph-name="asciitilde" unicode="~" horiz-adv-x="501" 
d="M46 248q0 44 25 77.5t84 33.5q48 0 99.5 -27.5t86.5 -27.5q34 0 51.5 19t17.5 36h45q0 -44 -25 -77.5t-84 -33.5q-49 0 -100 27.5t-86 27.5q-34 0 -51.5 -19t-17.5 -36h-45z" />
    <glyph glyph-name="exclamdown" unicode="&#xa1;" horiz-adv-x="231" 
d="M83 427v108h66v-108h-66zM83 -173l1 545h63l2 -545h-66z" />
    <glyph glyph-name="cent" unicode="&#xa2;" horiz-adv-x="551" 
d="M250 -20v88q-108 9 -152.5 78.5t-44.5 197.5q0 127 45 197.5t152 79.5v89h62v-88q189 -13 192 -200h-65q-1 131 -127 143v-440q125 13 126 125h66q-2 -81 -49.5 -128.5t-142.5 -53.5v-88h-62zM121 344q0 -103 29.5 -156t99.5 -62v438q-70 -10 -99.5 -64.5t-29.5 -155.5z
" />
    <glyph glyph-name="sterling" unicode="&#xa3;" horiz-adv-x="523" 
d="M198 262q5 -35 5 -68q0 -97 -69 -140l350 1v-59h-456v58h1q6 1 13.5 3t26 12t32 23t24.5 38.5t11 57.5q0 41 -6 74h-106v55h95q-4 16 -18 59.5t-20 74.5t-6 67q0 87 55 138.5t154 51.5q101 0 155 -53.5t54 -148.5h-66q0 67 -39 105t-102 38q-64 0 -102.5 -37.5
t-38.5 -105.5q0 -31 6 -60t18.5 -68.5t17.5 -60.5h162v-55h-151z" />
    <glyph glyph-name="currency" unicode="&#xa4;" horiz-adv-x="653" 
d="M523 487q40 -60 40 -164q0 -98 -37 -158l74 -74l-41 -41l-72 72q-57 -46 -160 -46q-102 0 -160 45l-71 -71l-42 41l75 74q-37 57 -37 158q0 97 35 156l-74 74l41 41l70 -71q58 50 163 51q100 0 157 -44l71 71l41 -41zM159 323q0 -189 168 -189q169 0 169 189
q0 193 -169 193q-168 0 -168 -193z" />
    <glyph glyph-name="yen" unicode="&#xa5;" horiz-adv-x="557" 
d="M248 0v192h-110v51h110v60h-110v51h89l-215 352h75l194 -335l186 335h78l-211 -352h88v-51h-108v-60h108v-51h-108v-192h-66z" />
    <glyph glyph-name="brokenbar" unicode="&#xa6;" horiz-adv-x="215" 
d="M83 395v425h50v-425h-50zM133 245v-425h-50v425h50z" />
    <glyph glyph-name="section" unicode="&#xa7;" horiz-adv-x="520" 
d="M481 370q0 -80 -61 -121q56 -39 56 -111q0 -151 -220 -151q-113 0 -164.5 42t-51.5 129h60q0 -123 156 -123t156 100q0 40 -27 64t-67.5 32.5l-87.5 19t-87.5 22.5t-67.5 44t-27 82q0 82 62 124q-58 35 -58 108q0 145 208 145q111 0 158.5 -39.5t47.5 -121.5h-60
q0 54 -30.5 83.5t-114.5 29.5q-144 0 -144 -97q0 -37 27 -59.5t67.5 -30t87.5 -18t87.5 -23t67.5 -45.5t27 -85zM112 399q0 -29 15 -48.5t44 -30t58 -16.5l69.5 -14t66.5 -16q51 32 51 93q0 31 -15 51.5t-44 32t-57 18t-69.5 14.5t-66.5 16q-52 -36 -52 -100z" />
    <glyph glyph-name="dieresis" unicode="&#xa8;" horiz-adv-x="363" 
d="M60 634v121h63v-121h-63zM212 634v121h63v-121h-63z" />
    <glyph glyph-name="copyright" unicode="&#xa9;" horiz-adv-x="800" 
d="M747 348q0 -79 -17.5 -142t-55.5 -116t-107.5 -82t-166.5 -29q-96 0 -165 29t-108 82t-56.5 116.5t-17.5 141.5q0 79 17.5 143t56 117.5t108 83.5t165.5 30q78 0 138.5 -20t99 -54t64 -82.5t35.5 -102t10 -115.5zM103 348q0 -69 15 -125t48 -102t92.5 -71.5t141.5 -25.5
q83 0 142.5 25.5t92.5 71.5t48 101.5t15 125.5t-15 126.5t-48 103.5t-92.5 73t-142.5 26q-82 0 -141.5 -26t-92.5 -73t-48 -103.5t-15 -126.5zM553 281q-3 -144 -150 -144q-90 0 -129.5 53t-39.5 160t39.5 160.5t129.5 53.5q149 0 151 -149h-49q-1 53 -28 80t-74 27
q-63 0 -91.5 -42t-28.5 -130q0 -89 28.5 -130t91.5 -41q97 0 101 102h49z" />
    <glyph glyph-name="ordfeminine" unicode="&#xaa;" horiz-adv-x="397" 
d="M306 361l-6 44q-48 -53 -133 -53q-132 0 -132 115q0 65 41.5 92.5t118.5 27.5q59 0 99 -6q-2 66 -19.5 91t-74.5 25q-58 0 -79.5 -23.5t-21.5 -53.5h-48q0 120 147 120q31 0 54.5 -5.5t39 -12.5t26 -22.5t16 -27t8 -36t3 -39.5t0.5 -45v-7v-90l8 -94h-47zM175 396
q47 0 78.5 19.5t40.5 45.5v77q-47 5 -88 5q-62 0 -90.5 -16t-28.5 -57q0 -74 88 -74z" />
    <glyph glyph-name="guillemotleft" unicode="&#xab;" horiz-adv-x="496" 
d="M193 107l-117 148v18l117 156h77l-129 -166l129 -156h-77zM345 107l-117 148v18l117 156h77l-130 -166l130 -156h-77z" />
    <glyph glyph-name="registered" unicode="&#xae;" horiz-adv-x="800" 
d="M747 348q0 -79 -17.5 -142t-55.5 -116t-107.5 -82t-166.5 -29q-96 0 -165 29t-108 82t-56.5 116.5t-17.5 141.5q0 79 17.5 143t56 117.5t108 83.5t165.5 30q78 0 138.5 -20t99 -54t64 -82.5t35.5 -102t10 -115.5zM103 348q0 -69 15 -125t48 -102t92.5 -71.5t141.5 -25.5
q83 0 142.5 25.5t92.5 71.5t48 101.5t15 125.5t-15 126.5t-48 103.5t-92.5 73t-142.5 26q-82 0 -141.5 -26t-92.5 -73t-48 -103.5t-15 -126.5zM261 143v409h153q76 0 111 -27t35 -98q0 -57 -21.5 -84t-67.5 -35l85 -165h-52l-79 161h-116v-161h-48zM309 512v-169h102
q24 0 39 2.5t30.5 10.5t23 25.5t7.5 45.5q0 52 -25.5 68.5t-74.5 16.5h-102z" />
    <glyph glyph-name="macron" unicode="&#xaf;" horiz-adv-x="375" 
d="M60 712h234v-50h-234v50z" />
    <glyph glyph-name="degree" unicode="&#xb0;" horiz-adv-x="317" 
d="M257 614q0 -108 -98 -108q-99 0 -99 108q0 109 99 109q98 0 98 -109zM103 614q0 -70 56 -70t56 70q0 71 -56 71t-56 -71z" />
    <glyph glyph-name="plusminus" unicode="&#xb1;" horiz-adv-x="507" 
d="M223 208v122h-157v62h157v119h61v-119h157v-62h-157v-122h-61zM66 105v62h375v-62h-375z" />
    <glyph glyph-name="uni00B2" unicode="&#xb2;" horiz-adv-x="376" 
d="M21 335v50l141 126q37 32 54.5 49.5t38.5 43.5t29 51.5t8 56.5q0 42 -27.5 67.5t-79.5 25.5q-50 0 -80.5 -29t-30.5 -74h-56q0 68 43.5 111t122.5 43q84 0 124.5 -39t40.5 -102q0 -38 -8 -68t-30.5 -60t-38.5 -47.5t-54 -53.5l-110 -102l242 2v-51h-329z" />
    <glyph glyph-name="uni00B3" unicode="&#xb3;" horiz-adv-x="425" 
d="M219 654q164 -13 164 -167q0 -76 -43.5 -121t-136.5 -45q-89 0 -131 42.5t-42 106.5h56q0 -42 30.5 -69t86.5 -27q121 0 121 116q0 56 -34 88t-95 32l-61 -6v44l159 132l-238 -1v52h317v-50z" />
    <glyph glyph-name="acute" unicode="&#xb4;" horiz-adv-x="293" 
d="M54 634l73 136h71l-84 -136h-60z" />
    <glyph glyph-name="paragraph" unicode="&#xb6;" horiz-adv-x="565" 
d="M287 0v310q-140 2 -195.5 49.5t-55.5 175.5q0 129 58 177t207 48h182v-760h-50v707h-96v-707h-50zM100 535q0 -53 11 -87t36.5 -52t57 -24.5t82.5 -7.5v343q-51 -1 -82.5 -7.5t-57 -24.5t-36.5 -52t-11 -88z" />
    <glyph glyph-name="periodcentered" unicode="&#xb7;" horiz-adv-x="220" 
d="M77 236v122h69v-122h-69z" />
    <glyph glyph-name="cedilla" unicode="&#xb8;" horiz-adv-x="318" 
d="M242 -131q0 -47 -28.5 -65.5t-92.5 -18.5q-16 0 -31.5 1.5t-22.5 3.5l-7 2v43q0 -1 5.5 -2.5t16.5 -3t24 -1.5q39 0 55 9.5t16 36.5q0 46 -84 46h-6l37 83h62l-27 -59q83 -7 83 -75z" />
    <glyph glyph-name="uni00B9" unicode="&#xb9;" horiz-adv-x="230" 
d="M104 330v441l-95 -45v61l113 52h37v-509h-55z" />
    <glyph glyph-name="ordmasculine" unicode="&#xba;" horiz-adv-x="390" 
d="M358 547q0 -97 -36 -145.5t-127 -48.5t-127 48.5t-36 145.5t36.5 146t126.5 49t126.5 -49t36.5 -146zM83 547q0 -78 25 -114t87 -36t87 36t25 114t-25 114.5t-87 36.5t-87 -36.5t-25 -114.5z" />
    <glyph glyph-name="guillemotright" unicode="&#xbb;" horiz-adv-x="496" 
d="M151 107h-76l128 156l-128 166h76l117 -156v-18zM303 107h-76l128 156l-128 166h76l117 -156v-18z" />
    <glyph glyph-name="onequarter" unicode="&#xbc;" horiz-adv-x="849" 
d="M67 -40l529 827h63l-529 -827h-63zM104 253v441l-95 -45v61l113 52h37v-509h-55zM709 0v110h-260v50l230 347h85v-347h60v-50h-60v-110h-55zM709 160v307l-195 -307h195z" />
    <glyph glyph-name="onehalf" unicode="&#xbd;" horiz-adv-x="867" 
d="M67 -40l529 827h63l-529 -827h-63zM104 253v441l-95 -45v61l113 52h37v-509h-55zM512 5v50l141 126q37 32 54.5 49.5t38.5 43.5t29 51.5t8 56.5q0 42 -27.5 67.5t-79.5 25.5q-50 0 -80.5 -29t-30.5 -74h-56q0 68 43.5 111t122.5 43q84 0 124.5 -39t40.5 -102
q0 -38 -8 -68t-30.5 -60t-38.5 -47.5t-54 -53.5l-110 -102l242 2v-51h-329z" />
    <glyph glyph-name="threequarters" unicode="&#xbe;" horiz-adv-x="1030" 
d="M248 -40l529 827h63l-529 -827h-63zM219 577q164 -13 164 -167q0 -76 -43.5 -121t-136.5 -45q-89 0 -131 42t-42 107h56q0 -42 30.5 -69t86.5 -27q121 0 121 116q0 56 -34 88t-95 32l-61 -6v44l159 132l-238 -1v52h317v-50zM890 0v110h-260v50l230 347h85v-347h60v-50
h-60v-110h-55zM890 160v307l-195 -307h195z" />
    <glyph glyph-name="questiondown" unicode="&#xbf;" horiz-adv-x="502" 
d="M304 535v-104h-66v104h66zM238 377h66l-1 -40q0 -44 -12 -77t-30 -51t-39 -37l-39 -35.5t-30 -46t-12 -69.5q0 -141 130 -141q131 0 131 150h65q0 -209 -196 -209q-103 0 -151.5 51.5t-48.5 144.5q0 52 17 89t41 58l48.5 41.5t42 53t18.5 78.5v40z" />
    <glyph glyph-name="Agrave" unicode="&#xc0;" horiz-adv-x="648" 
d="M360 765h-69l-85 113h81zM12 0l276 708h72l276 -708h-74l-69 184h-340l-68 -184h-73zM176 248h294l-147 396z" />
    <glyph glyph-name="Aacute" unicode="&#xc1;" horiz-adv-x="648" 
d="M288 764l73 114h81l-85 -114h-69zM12 0l276 708h72l276 -708h-74l-69 184h-340l-68 -184h-73zM176 248h294l-147 396z" />
    <glyph glyph-name="Acircumflex" unicode="&#xc2;" horiz-adv-x="648" 
d="M464 764h-70l-70 70l-70 -70h-69l104 112h70zM12 0l276 708h72l276 -708h-74l-69 184h-340l-68 -184h-73zM176 248h294l-147 396z" />
    <glyph glyph-name="Atilde" unicode="&#xc3;" horiz-adv-x="648" 
d="M461 864q0 -100 -80 -100q-29 0 -45.5 11.5t-29 23t-31.5 11.5q-39 0 -39 -46h-48q0 99 80 99q35 0 60 -23t46 -23q38 0 38 47h49zM12 0l276 708h72l276 -708h-74l-69 184h-340l-68 -184h-73zM176 248h294l-147 396z" />
    <glyph glyph-name="Adieresis" unicode="&#xc4;" horiz-adv-x="648" 
d="M213 764v122h67v-122h-67zM368 764v122h66v-122h-66zM12 0l276 708h72l276 -708h-74l-69 184h-340l-68 -184h-73zM176 248h294l-147 396z" />
    <glyph glyph-name="Aring" unicode="&#xc5;" horiz-adv-x="648" 
d="M413 840q0 -38 -24 -61t-65 -23t-64.5 23t-23.5 61t23.5 61t64.5 23t65 -23t24 -61zM286 840q0 -18 10.5 -29t27.5 -11q18 0 28.5 11t10.5 29q0 19 -10.5 29.5t-28.5 10.5q-17 0 -27.5 -10.5t-10.5 -29.5zM12 0l276 708h72l276 -708h-74l-69 184h-340l-68 -184h-73z
M176 248h294l-147 396z" />
    <glyph glyph-name="AE" unicode="&#xc6;" horiz-adv-x="911" 
d="M12 0l384 708h483v-63h-378v-246h328v-61h-328v-275h382v-63h-450v192h-243l-102 -192h-76zM433 251v396l-211 -396h211z" />
    <glyph glyph-name="Ccedilla" unicode="&#xc7;" horiz-adv-x="651" 
d="M438 -139q0 -47 -28.5 -65.5t-92.5 -18.5q-16 0 -31.5 1.5t-22.5 3.5l-7 2v43q0 -1 5.5 -2.5t16.5 -3t24 -1.5q39 0 55 9.5t16 36.5q0 46 -84 46h-6l32 72q-142 7 -202 98.5t-60 270.5q0 187 66 279.5t222 92.5q257 0 262 -255h-67q-7 192 -195 192q-117 0 -168 -75
t-51 -234t51 -233t168 -74q184 0 193 183h67q-7 -228 -224 -244l-22 -49q83 -7 83 -75z" />
    <glyph glyph-name="Egrave" unicode="&#xc8;" horiz-adv-x="562" 
d="M341 765h-69l-85 113h81zM84 0v708h445v-63h-377v-246h327v-61h-327v-275h382v-63h-450z" />
    <glyph glyph-name="Eacute" unicode="&#xc9;" horiz-adv-x="562" 
d="M269 764l73 114h81l-85 -114h-69zM84 0v708h445v-63h-377v-246h327v-61h-327v-275h382v-63h-450z" />
    <glyph glyph-name="Ecircumflex" unicode="&#xca;" horiz-adv-x="562" 
d="M445 764h-70l-70 70l-70 -70h-69l104 112h70zM84 0v708h445v-63h-377v-246h327v-61h-327v-275h382v-63h-450z" />
    <glyph glyph-name="Edieresis" unicode="&#xcb;" horiz-adv-x="562" 
d="M194 764v122h67v-122h-67zM349 764v122h66v-122h-66zM84 0v708h445v-63h-377v-246h327v-61h-327v-275h382v-63h-450z" />
    <glyph glyph-name="Igrave" unicode="&#xcc;" horiz-adv-x="236" 
d="M154 765h-69l-85 113h81zM84 0v708h68v-708h-68z" />
    <glyph glyph-name="Iacute" unicode="&#xcd;" horiz-adv-x="236" 
d="M82 764l73 114h81l-85 -114h-69zM84 0v708h68v-708h-68z" />
    <glyph glyph-name="Icircumflex" unicode="&#xce;" horiz-adv-x="236" 
d="M258 764h-70l-70 70l-70 -70h-69l104 112h70zM84 0v708h68v-708h-68z" />
    <glyph glyph-name="Idieresis" unicode="&#xcf;" horiz-adv-x="236" 
d="M7 764v122h67v-122h-67zM162 764v122h66v-122h-66zM84 0v708h68v-708h-68z" />
    <glyph glyph-name="Eth" unicode="&#xd0;" horiz-adv-x="676" 
d="M84 329h-73v51h73v331h217q99 0 163 -21t98.5 -68.5t47.5 -109.5t13 -158t-13 -158t-47.5 -109.5t-98.5 -68.5t-163 -21h-217v332zM152 329v-271h160q137 -1 189.5 66t52.5 230t-52.5 229t-189.5 66h-160v-269h128v-51h-128z" />
    <glyph glyph-name="Ntilde" unicode="&#xd1;" horiz-adv-x="714" 
d="M496 864q0 -100 -80 -100q-29 0 -45.5 11.5t-29 23t-31.5 11.5q-39 0 -39 -46h-48q0 99 80 99q35 0 60 -23t46 -23q38 0 38 47h49zM148 619v-619h-64l4 708h72l408 -615l-3 615h65v-708h-72z" />
    <glyph glyph-name="Ograve" unicode="&#xd2;" horiz-adv-x="690" 
d="M381 767h-69l-85 113h81zM637 353q0 -186 -67 -278t-225 -92q-159 0 -225.5 92t-66.5 278q0 187 66.5 279.5t225.5 92.5q158 0 225 -92.5t67 -279.5zM122 353q0 -159 51.5 -233t171.5 -74t171.5 74t51.5 233q0 160 -51.5 234.5t-171.5 74.5t-171.5 -74.5t-51.5 -234.5z
" />
    <glyph glyph-name="Oacute" unicode="&#xd3;" horiz-adv-x="690" 
d="M309 766l73 114h81l-85 -114h-69zM637 353q0 -186 -67 -278t-225 -92q-159 0 -225.5 92t-66.5 278q0 187 66.5 279.5t225.5 92.5q158 0 225 -92.5t67 -279.5zM122 353q0 -159 51.5 -233t171.5 -74t171.5 74t51.5 233q0 160 -51.5 234.5t-171.5 74.5t-171.5 -74.5
t-51.5 -234.5z" />
    <glyph glyph-name="Ocircumflex" unicode="&#xd4;" horiz-adv-x="690" 
d="M485 766h-70l-70 70l-70 -70h-69l104 112h70zM637 353q0 -186 -67 -278t-225 -92q-159 0 -225.5 92t-66.5 278q0 187 66.5 279.5t225.5 92.5q158 0 225 -92.5t67 -279.5zM122 353q0 -159 51.5 -233t171.5 -74t171.5 74t51.5 233q0 160 -51.5 234.5t-171.5 74.5
t-171.5 -74.5t-51.5 -234.5z" />
    <glyph glyph-name="Otilde" unicode="&#xd5;" horiz-adv-x="690" 
d="M482 866q0 -100 -80 -100q-29 0 -45.5 11.5t-29 23t-31.5 11.5q-39 0 -39 -46h-48q0 99 80 99q35 0 60 -23t46 -23q38 0 38 47h49zM637 353q0 -186 -67 -278t-225 -92q-159 0 -225.5 92t-66.5 278q0 187 66.5 279.5t225.5 92.5q158 0 225 -92.5t67 -279.5zM122 353
q0 -159 51.5 -233t171.5 -74t171.5 74t51.5 233q0 160 -51.5 234.5t-171.5 74.5t-171.5 -74.5t-51.5 -234.5z" />
    <glyph glyph-name="Odieresis" unicode="&#xd6;" horiz-adv-x="690" 
d="M234 766v122h67v-122h-67zM389 766v122h66v-122h-66zM637 353q0 -186 -67 -278t-225 -92q-159 0 -225.5 92t-66.5 278q0 187 66.5 279.5t225.5 92.5q158 0 225 -92.5t67 -279.5zM122 353q0 -159 51.5 -233t171.5 -74t171.5 74t51.5 233q0 160 -51.5 234.5t-171.5 74.5
t-171.5 -74.5t-51.5 -234.5z" />
    <glyph glyph-name="multiply" unicode="&#xd7;" horiz-adv-x="473" 
d="M368 126l-132 137l-132 -136l-40 39l133 138l-133 138l40 39l132 -137l132 137l41 -39l-134 -138l134 -138z" />
    <glyph glyph-name="Oslash" unicode="&#xd8;" horiz-adv-x="690" 
d="M54 -7l60 89q-61 87 -61 271q0 187 66.5 279.5t225.5 92.5q110 0 177 -47l28 41h80l-60 -87q67 -89 67 -279q0 -186 -67 -278t-225 -92q-116 0 -183 50l-27 -40h-81zM122 353q0 -135 36 -207l325 476q-50 40 -138 40q-120 0 -171.5 -74.5t-51.5 -234.5zM568 353
q0 141 -41 216l-326 -479q50 -44 144 -44q120 0 171.5 74t51.5 233z" />
    <glyph glyph-name="Ugrave" unicode="&#xd9;" horiz-adv-x="678" 
d="M376 765h-69l-85 113h81zM607 347q0 -74 -5.5 -126t-22.5 -99.5t-46.5 -76.5t-77.5 -45.5t-116 -16.5t-116 16.5t-77.5 45.5t-46.5 76.5t-22.5 99.5t-5.5 126v361h68v-357q0 -162 41.5 -233t158.5 -71q116 0 157.5 71t41.5 233v357h69v-361z" />
    <glyph glyph-name="Uacute" unicode="&#xda;" horiz-adv-x="678" 
d="M304 764l73 114h81l-85 -114h-69zM607 347q0 -74 -5.5 -126t-22.5 -99.5t-46.5 -76.5t-77.5 -45.5t-116 -16.5t-116 16.5t-77.5 45.5t-46.5 76.5t-22.5 99.5t-5.5 126v361h68v-357q0 -162 41.5 -233t158.5 -71q116 0 157.5 71t41.5 233v357h69v-361z" />
    <glyph glyph-name="Ucircumflex" unicode="&#xdb;" horiz-adv-x="678" 
d="M480 764h-70l-70 70l-70 -70h-69l104 112h70zM607 347q0 -74 -5.5 -126t-22.5 -99.5t-46.5 -76.5t-77.5 -45.5t-116 -16.5t-116 16.5t-77.5 45.5t-46.5 76.5t-22.5 99.5t-5.5 126v361h68v-357q0 -162 41.5 -233t158.5 -71q116 0 157.5 71t41.5 233v357h69v-361z" />
    <glyph glyph-name="Udieresis" unicode="&#xdc;" horiz-adv-x="678" 
d="M229 764v122h67v-122h-67zM384 764v122h66v-122h-66zM607 347q0 -74 -5.5 -126t-22.5 -99.5t-46.5 -76.5t-77.5 -45.5t-116 -16.5t-116 16.5t-77.5 45.5t-46.5 76.5t-22.5 99.5t-5.5 126v361h68v-357q0 -162 41.5 -233t158.5 -71q116 0 157.5 71t41.5 233v357h69v-361z
" />
    <glyph glyph-name="Yacute" unicode="&#xdd;" horiz-adv-x="592" 
d="M259 764l73 114h81l-85 -114h-69zM266 0v235l-254 473h78l209 -413l201 413h80l-247 -473v-235h-67z" />
    <glyph glyph-name="Thorn" unicode="&#xde;" horiz-adv-x="625" 
d="M84 0v708h69v-126h179q136 0 197 -48.5t61 -177.5t-61 -177.5t-199 -48.5h-177v-130h-69zM153 521v-330l182 -1q44 0 74 5.5t58 22t42 51t14 87.5t-14 87.5t-42 50.5t-58 21.5t-74 5.5h-182z" />
    <glyph glyph-name="germandbls" unicode="&#xdf;" horiz-adv-x="567" 
d="M83 0v549q0 48 9 84t31 65.5t63 45t101 16.5q112 0 160 -51.5t48 -144.5q0 -42 -14 -74t-32 -49t-42 -28t-37 -14t-24 -4q9 0 17.5 -1t32 -5t42 -16.5t38 -32t31 -54.5t11.5 -80q0 -114 -66.5 -160t-242.5 -46v57q136 0 189 33.5t53 120.5q0 40 -13 68t-31.5 44t-51.5 25
t-61 12t-72 4v61q206 0 206 131q0 72 -32.5 109.5t-108.5 37.5q-75 -1 -106.5 -38.5t-31.5 -108.5v-556h-66z" />
    <glyph glyph-name="agrave" unicode="&#xe0;" horiz-adv-x="572" 
d="M313 634h-60l-85 136h72zM444 1l-10 73q-65 -85 -197 -85q-185 0 -185 164q0 93 57.5 132t168.5 39q89 0 150 -9q-1 52 -5.5 80.5t-19 52t-42.5 32t-76 8.5q-151 0 -151 -115h-61q0 171 209 171q32 0 58 -2.5t46 -10t35.5 -14.5t27 -21.5l19.5 -24.5t13 -31t7.5 -33.5
t4 -39.5t1.5 -41.5v-45.5v-15v-130l11 -134h-61zM249 47q79 0 129 38t50 80v94q-67 8 -135 8q-88 0 -130.5 -25t-42.5 -86q0 -109 129 -109z" />
    <glyph glyph-name="aacute" unicode="&#xe1;" horiz-adv-x="572" 
d="M253 634l73 136h71l-84 -136h-60zM444 1l-10 73q-65 -85 -197 -85q-185 0 -185 164q0 93 57.5 132t168.5 39q89 0 150 -9q-1 52 -5.5 80.5t-19 52t-42.5 32t-76 8.5q-151 0 -151 -115h-61q0 171 209 171q32 0 58 -2.5t46 -10t35.5 -14.5t27 -21.5l19.5 -24.5t13 -31
t7.5 -33.5t4 -39.5t1.5 -41.5v-45.5v-15v-130l11 -134h-61zM249 47q79 0 129 38t50 80v94q-67 8 -135 8q-88 0 -130.5 -25t-42.5 -86q0 -109 129 -109z" />
    <glyph glyph-name="acircumflex" unicode="&#xe2;" horiz-adv-x="572" 
d="M423 634h-66l-73 87l-73 -87h-65l106 134h63zM444 1l-10 73q-65 -85 -197 -85q-185 0 -185 164q0 93 57.5 132t168.5 39q89 0 150 -9q-1 52 -5.5 80.5t-19 52t-42.5 32t-76 8.5q-151 0 -151 -115h-61q0 171 209 171q32 0 58 -2.5t46 -10t35.5 -14.5t27 -21.5l19.5 -24.5
t13 -31t7.5 -33.5t4 -39.5t1.5 -41.5v-45.5v-15v-130l11 -134h-61zM249 47q79 0 129 38t50 80v94q-67 8 -135 8q-88 0 -130.5 -25t-42.5 -86q0 -109 129 -109z" />
    <glyph glyph-name="atilde" unicode="&#xe3;" horiz-adv-x="572" 
d="M421 734q0 -100 -79 -100q-34 0 -62.5 24.5t-46.5 24.5q-37 0 -37 -48h-48q0 100 79 100q33 0 61.5 -24t47.5 -24q37 0 37 47h48zM444 1l-10 73q-65 -85 -197 -85q-185 0 -185 164q0 93 57.5 132t168.5 39q89 0 150 -9q-1 52 -5.5 80.5t-19 52t-42.5 32t-76 8.5
q-151 0 -151 -115h-61q0 171 209 171q32 0 58 -2.5t46 -10t35.5 -14.5t27 -21.5l19.5 -24.5t13 -31t7.5 -33.5t4 -39.5t1.5 -41.5v-45.5v-15v-130l11 -134h-61zM249 47q79 0 129 38t50 80v94q-67 8 -135 8q-88 0 -130.5 -25t-42.5 -86q0 -109 129 -109z" />
    <glyph glyph-name="adieresis" unicode="&#xe4;" horiz-adv-x="572" 
d="M176 634v121h63v-121h-63zM328 634v121h63v-121h-63zM444 1l-10 73q-65 -85 -197 -85q-185 0 -185 164q0 93 57.5 132t168.5 39q89 0 150 -9q-1 52 -5.5 80.5t-19 52t-42.5 32t-76 8.5q-151 0 -151 -115h-61q0 171 209 171q32 0 58 -2.5t46 -10t35.5 -14.5t27 -21.5
l19.5 -24.5t13 -31t7.5 -33.5t4 -39.5t1.5 -41.5v-45.5v-15v-130l11 -134h-61zM249 47q79 0 129 38t50 80v94q-67 8 -135 8q-88 0 -130.5 -25t-42.5 -86q0 -109 129 -109z" />
    <glyph glyph-name="aring" unicode="&#xe5;" horiz-adv-x="572" 
d="M372 708q0 -38 -23.5 -60.5t-63.5 -22.5q-41 0 -64.5 22.5t-23.5 60.5q0 37 23.5 59.5t64.5 22.5q40 0 63.5 -22.5t23.5 -59.5zM246 708q0 -19 10.5 -29.5t28.5 -10.5q17 0 28 11t11 29t-11 28.5t-28 10.5q-18 0 -28.5 -10.5t-10.5 -28.5zM444 1l-10 73q-65 -85 -197 -85
q-185 0 -185 164q0 93 57.5 132t168.5 39q89 0 150 -9q-1 52 -5.5 80.5t-19 52t-42.5 32t-76 8.5q-151 0 -151 -115h-61q0 171 209 171q32 0 58 -2.5t46 -10t35.5 -14.5t27 -21.5l19.5 -24.5t13 -31t7.5 -33.5t4 -39.5t1.5 -41.5v-45.5v-15v-130l11 -134h-61zM249 47
q79 0 129 38t50 80v94q-67 8 -135 8q-88 0 -130.5 -25t-42.5 -86q0 -109 129 -109z" />
    <glyph glyph-name="ae" unicode="&#xe6;" horiz-adv-x="924" 
d="M871 159q0 -19 -5 -38.5t-20 -44t-38.5 -43t-65.5 -31.5t-97 -13q-146 0 -200 99q-62 -99 -208 -99q-185 0 -185 164q0 93 57 129t169 36h135q3 38 10 65q-8 56 -39 80.5t-99 24.5q-151 0 -151 -115h-61q0 171 209 171q137 0 176 -78q56 80 187 80q124 0 177 -69.5
t53 -221.5h-396q2 -108 40 -158t125 -50q84 0 121.5 36t38.5 76h67zM644 489q-79 0 -117.5 -43t-45.5 -132h324q-8 93 -47 134t-114 41zM422 154q-11 50 -11 107h-118q-90 0 -131.5 -22.5t-41.5 -82.5q0 -109 129 -109q74 0 120 33t53 74z" />
    <glyph glyph-name="ccedilla" unicode="&#xe7;" horiz-adv-x="551" 
d="M384 -133q0 -47 -28.5 -65.5t-92.5 -18.5q-16 0 -31.5 1.5t-22.5 3.5l-7 2v43q0 -1 5.5 -2.5t16.5 -3t24 -1.5q39 0 55 9.5t16 36.5q0 46 -84 46h-6l32 72q-114 6 -161 75.5t-47 200.5q0 137 52.5 208.5t178.5 71.5q217 0 220 -202h-65q-1 145 -155 145q-89 0 -126 -55
t-37 -168q0 -114 37 -167t126 -53q152 0 154 126h66q-3 -165 -181 -181l-22 -49q83 -7 83 -75z" />
    <glyph glyph-name="egrave" unicode="&#xe8;" horiz-adv-x="565" 
d="M316 634h-60l-85 136h72zM512 159q0 -25 -9 -50.5t-31 -54t-70.5 -47t-115.5 -18.5q-126 0 -179.5 70.5t-53.5 206.5q0 137 53.5 208.5t179.5 71.5q124 0 177 -69.5t53 -221.5h-395q2 -108 40 -158t125 -50q58 0 96 21t50.5 44.5t12.5 46.5h67zM286 489q-79 0 -118 -43
t-46 -132h324q-8 93 -46.5 134t-113.5 41z" />
    <glyph glyph-name="eacute" unicode="&#xe9;" horiz-adv-x="565" 
d="M256 634l73 136h71l-84 -136h-60zM512 159q0 -25 -9 -50.5t-31 -54t-70.5 -47t-115.5 -18.5q-126 0 -179.5 70.5t-53.5 206.5q0 137 53.5 208.5t179.5 71.5q124 0 177 -69.5t53 -221.5h-395q2 -108 40 -158t125 -50q58 0 96 21t50.5 44.5t12.5 46.5h67zM286 489
q-79 0 -118 -43t-46 -132h324q-8 93 -46.5 134t-113.5 41z" />
    <glyph glyph-name="ecircumflex" unicode="&#xea;" horiz-adv-x="565" 
d="M426 634h-66l-73 87l-73 -87h-65l106 134h63zM512 159q0 -25 -9 -50.5t-31 -54t-70.5 -47t-115.5 -18.5q-126 0 -179.5 70.5t-53.5 206.5q0 137 53.5 208.5t179.5 71.5q124 0 177 -69.5t53 -221.5h-395q2 -108 40 -158t125 -50q58 0 96 21t50.5 44.5t12.5 46.5h67z
M286 489q-79 0 -118 -43t-46 -132h324q-8 93 -46.5 134t-113.5 41z" />
    <glyph glyph-name="edieresis" unicode="&#xeb;" horiz-adv-x="565" 
d="M179 634v121h63v-121h-63zM331 634v121h63v-121h-63zM512 159q0 -25 -9 -50.5t-31 -54t-70.5 -47t-115.5 -18.5q-126 0 -179.5 70.5t-53.5 206.5q0 137 53.5 208.5t179.5 71.5q124 0 177 -69.5t53 -221.5h-395q2 -108 40 -158t125 -50q58 0 96 21t50.5 44.5t12.5 46.5h67
zM286 489q-79 0 -118 -43t-46 -132h324q-8 93 -46.5 134t-113.5 41z" />
    <glyph glyph-name="igrave" unicode="&#xec;" horiz-adv-x="227" 
d="M142 634h-60l-85 136h72zM80 0v535h66v-535h-66z" />
    <glyph glyph-name="iacute" unicode="&#xed;" horiz-adv-x="227" 
d="M85 634l72 136h68l-85 -136h-55zM80 0v535h66v-535h-66z" />
    <glyph glyph-name="icircumflex" unicode="&#xee;" horiz-adv-x="227" 
d="M252 634h-66l-73 87l-73 -87h-65l106 134h63zM80 0v535h66v-535h-66z" />
    <glyph glyph-name="idieresis" unicode="&#xef;" horiz-adv-x="227" 
d="M5 634v121h63v-121h-63zM157 634v121h63v-121h-63zM80 0v535h66v-535h-66z" />
    <glyph glyph-name="eth" unicode="&#xf0;" horiz-adv-x="576" 
d="M392 658q130 -194 131 -392q0 -139 -52 -208t-183 -69t-183 69t-52 208q0 136 52 206t183 70q65 0 117 -40q-25 59 -68 127l-93 -47l-32 44l94 48q-18 24 -36.5 45.5t-27.5 30.5l-9 10h78q21 -21 49 -58l85 43l33 -43zM455 263q0 55 -11 108q-18 47 -57 83t-99 36
q-93 0 -130 -54.5t-37 -169.5q0 -114 37.5 -167t129.5 -53t129 52t38 165z" />
    <glyph glyph-name="ntilde" unicode="&#xf1;" horiz-adv-x="584" 
d="M437 734q0 -100 -79 -100q-34 0 -62.5 24.5t-46.5 24.5q-37 0 -37 -48h-48q0 100 79 100q33 0 62 -24t47 -24q37 0 37 47h48zM83 0v396l-10 139h57l12 -91q62 99 199 99q91 0 133.5 -52t42.5 -175v-316h-66v318q0 84 -29.5 123.5t-102.5 39.5q-110 0 -170 -105v-376h-66z
" />
    <glyph glyph-name="ograve" unicode="&#xf2;" horiz-adv-x="576" 
d="M317 627h-60l-85 136h72zM523 266q0 -138 -52.5 -207.5t-182.5 -69.5q-131 0 -183 69.5t-52 207.5q0 139 52.5 209.5t182.5 70.5q130 1 182.5 -70t52.5 -210zM121 266q0 -115 37 -167.5t130 -52.5t130 52.5t37 167.5t-37 169t-130 54t-130 -54t-37 -169z" />
    <glyph glyph-name="oacute" unicode="&#xf3;" horiz-adv-x="576" 
d="M257 627l73 136h71l-84 -136h-60zM523 266q0 -138 -52.5 -207.5t-182.5 -69.5q-131 0 -183 69.5t-52 207.5q0 139 52.5 209.5t182.5 70.5q130 1 182.5 -70t52.5 -210zM121 266q0 -115 37 -167.5t130 -52.5t130 52.5t37 167.5t-37 169t-130 54t-130 -54t-37 -169z" />
    <glyph glyph-name="ocircumflex" unicode="&#xf4;" horiz-adv-x="576" 
d="M427 627h-66l-73 87l-73 -87h-65l106 134h63zM523 266q0 -138 -52.5 -207.5t-182.5 -69.5q-131 0 -183 69.5t-52 207.5q0 139 52.5 209.5t182.5 70.5q130 1 182.5 -70t52.5 -210zM121 266q0 -115 37 -167.5t130 -52.5t130 52.5t37 167.5t-37 169t-130 54t-130 -54
t-37 -169z" />
    <glyph glyph-name="otilde" unicode="&#xf5;" horiz-adv-x="576" 
d="M425 727q0 -100 -79 -100q-34 0 -62.5 24.5t-46.5 24.5q-37 0 -37 -48h-48q0 100 79 100q33 0 62 -24t47 -24q37 0 37 47h48zM523 266q0 -138 -52.5 -207.5t-182.5 -69.5q-131 0 -183 69.5t-52 207.5q0 139 52.5 209.5t182.5 70.5q130 1 182.5 -70t52.5 -210zM121 266
q0 -115 37 -167.5t130 -52.5t130 52.5t37 167.5t-37 169t-130 54t-130 -54t-37 -169z" />
    <glyph glyph-name="odieresis" unicode="&#xf6;" horiz-adv-x="576" 
d="M180 627v121h63v-121h-63zM332 627v121h63v-121h-63zM523 266q0 -138 -52.5 -207.5t-182.5 -69.5q-131 0 -183 69.5t-52 207.5q0 139 52.5 209.5t182.5 70.5q130 1 182.5 -70t52.5 -210zM121 266q0 -115 37 -167.5t130 -52.5t130 52.5t37 167.5t-37 169t-130 54t-130 -54
t-37 -169z" />
    <glyph glyph-name="divide" unicode="&#xf7;" horiz-adv-x="471" 
d="M205 409v106h61v-106h-61zM38 281v61h395v-61h-395zM205 108v106h61v-106h-61z" />
    <glyph glyph-name="oslash" unicode="&#xf8;" horiz-adv-x="576" 
d="M49 -8l52 72q-48 64 -48 202q0 139 52.5 209.5t182.5 70.5q85 0 138 -32l19 27h80l-51 -70q49 -67 49 -205t-52.5 -207.5t-182.5 -69.5q-85 0 -139 31l-20 -28h-80zM121 266q0 -91 23 -143l245 340q-38 26 -101 26q-93 0 -130 -54t-37 -169zM455 266q0 94 -24 145
l-245 -340q37 -25 102 -25q93 0 130 52.5t37 167.5z" />
    <glyph glyph-name="ugrave" unicode="&#xf9;" horiz-adv-x="582" 
d="M319 634h-60l-85 136h72zM457 0l-13 104q-8 -16 -21 -32t-36.5 -35.5t-61.5 -32t-84 -12.5q-91 0 -133.5 52t-42.5 174l1 317h65v-319q0 -82 30 -122t102 -40q38 0 70 13t53 34.5t33 39t20 35.5v359h66v-387l10 -148h-58z" />
    <glyph glyph-name="uacute" unicode="&#xfa;" horiz-adv-x="582" 
d="M259 634l73 136h71l-84 -136h-60zM457 0l-13 104q-8 -16 -21 -32t-36.5 -35.5t-61.5 -32t-84 -12.5q-91 0 -133.5 52t-42.5 174l1 317h65v-319q0 -82 30 -122t102 -40q38 0 70 13t53 34.5t33 39t20 35.5v359h66v-387l10 -148h-58z" />
    <glyph glyph-name="ucircumflex" unicode="&#xfb;" horiz-adv-x="582" 
d="M429 634h-66l-73 87l-73 -87h-65l106 134h63zM457 0l-13 104q-8 -16 -21 -32t-36.5 -35.5t-61.5 -32t-84 -12.5q-91 0 -133.5 52t-42.5 174l1 317h65v-319q0 -82 30 -122t102 -40q38 0 70 13t53 34.5t33 39t20 35.5v359h66v-387l10 -148h-58z" />
    <glyph glyph-name="udieresis" unicode="&#xfc;" horiz-adv-x="582" 
d="M182 634v121h63v-121h-63zM334 634v121h63v-121h-63zM457 0l-13 104q-8 -16 -21 -32t-36.5 -35.5t-61.5 -32t-84 -12.5q-91 0 -133.5 52t-42.5 174l1 317h65v-319q0 -82 30 -122t102 -40q38 0 70 13t53 34.5t33 39t20 35.5v359h66v-387l10 -148h-58z" />
    <glyph glyph-name="yacute" unicode="&#xfd;" horiz-adv-x="502" 
d="M221 634l73 136h71l-84 -136h-60zM163 -223l76 223h-29l-201 535h74l173 -486l167 486h70l-268 -758h-62z" />
    <glyph glyph-name="thorn" unicode="&#xfe;" horiz-adv-x="592" 
d="M83 -240v992h66v-291q65 83 183 83q207 0 207 -279q0 -274 -209 -274q-125 0 -181 78v-309h-66zM318 484q-108 0 -169 -94v-243q50 -95 169 -95q154 0 154 213q0 219 -154 219z" />
    <glyph glyph-name="ydieresis" unicode="&#xff;" horiz-adv-x="502" 
d="M144 634v121h63v-121h-63zM296 634v121h63v-121h-63zM163 -223l76 223h-29l-201 535h74l173 -486l167 486h70l-268 -758h-62z" />
    <glyph glyph-name="Amacron" unicode="&#x100;" horiz-adv-x="648" 
d="M207 841h234v-54h-234v54zM12 0l276 708h72l276 -708h-74l-69 184h-340l-68 -184h-73zM176 248h294l-147 396z" />
    <glyph glyph-name="amacron" unicode="&#x101;" horiz-adv-x="572" 
d="M167 712h234v-50h-234v50zM444 1l-10 73q-65 -85 -197 -85q-185 0 -185 164q0 93 57.5 132t168.5 39q89 0 150 -9q-1 52 -5.5 80.5t-19 52t-42.5 32t-76 8.5q-151 0 -151 -115h-61q0 171 209 171q32 0 58 -2.5t46 -10t35.5 -14.5t27 -21.5l19.5 -24.5t13 -31t7.5 -33.5
t4 -39.5t1.5 -41.5v-45.5v-15v-130l11 -134h-61zM249 47q79 0 129 38t50 80v94q-67 8 -135 8q-88 0 -130.5 -25t-42.5 -86q0 -109 129 -109z" />
    <glyph glyph-name="Abreve" unicode="&#x102;" horiz-adv-x="648" 
d="M455 862q0 -37 -33.5 -69t-97.5 -32t-97.5 32t-33.5 69h58q0 -20 21 -37.5t52 -17.5t52.5 17.5t21.5 37.5h57zM12 0l276 708h72l276 -708h-74l-69 184h-340l-68 -184h-73zM176 248h294l-147 396z" />
    <glyph glyph-name="abreve" unicode="&#x103;" horiz-adv-x="572" 
d="M416 744q0 -38 -34 -74.5t-98 -36.5t-98 36.5t-34 74.5h58q0 -21 21.5 -43t52.5 -22t53 22t22 43h57zM444 1l-10 73q-65 -85 -197 -85q-185 0 -185 164q0 93 57.5 132t168.5 39q89 0 150 -9q-1 52 -5.5 80.5t-19 52t-42.5 32t-76 8.5q-151 0 -151 -115h-61q0 171 209 171
q32 0 58 -2.5t46 -10t35.5 -14.5t27 -21.5l19.5 -24.5t13 -31t7.5 -33.5t4 -39.5t1.5 -41.5v-45.5v-15v-130l11 -134h-61zM249 47q79 0 129 38t50 80v94q-67 8 -135 8q-88 0 -130.5 -25t-42.5 -86q0 -109 129 -109z" />
    <glyph glyph-name="Aogonek" unicode="&#x104;" horiz-adv-x="648" 
d="M466 -110q0 32 23 61.5t47 42.5l23 14l-66 176h-340l-68 -184h-73l276 708h72l276 -708h-21q-11 -5 -27 -15.5t-35.5 -34t-19.5 -46.5q0 -21 11.5 -31t29.5 -10q10 0 22 3.5t18 6.5l7 3v-43q-23 -18 -72 -18q-41 0 -62 20.5t-21 54.5zM176 248h294l-147 396z" />
    <glyph glyph-name="aogonek" unicode="&#x105;" horiz-adv-x="572" 
d="M350 -110q0 32 23 61.5t47 42.5l23 14l-9 66q-65 -85 -197 -85q-185 0 -185 164q0 93 57.5 132t168.5 39q89 0 150 -9q-1 52 -5.5 80.5t-19 52t-42.5 32t-76 8.5q-151 0 -151 -115h-61q0 171 209 171q32 0 58 -2.5t46 -10t35.5 -14.5t27 -21.5l19.5 -24.5t13 -31
t7.5 -33.5t4 -39.5t1.5 -41.5v-45.5v-15v-130l11 -134h-3q-10 -5 -24 -13t-37.5 -33.5t-23.5 -50.5q0 -21 11.5 -31t29.5 -10q10 0 22 3.5t18 6.5l7 3v-43q-23 -18 -72 -18q-41 0 -62 20.5t-21 54.5zM249 47q79 0 129 38t50 80v94q-67 8 -135 8q-88 0 -130.5 -25t-42.5 -86
q0 -109 129 -109z" />
    <glyph glyph-name="Cacute" unicode="&#x106;" horiz-adv-x="651" 
d="M300 766l73 114h81l-85 -114h-69zM601 229q-4 -124 -67.5 -185t-192.5 -61q-156 0 -222 92t-66 278q0 187 66 279.5t222 92.5q257 0 262 -255h-67q-7 192 -195 192q-117 0 -168 -75t-51 -234t51 -233t168 -74q184 0 193 183h67z" />
    <glyph glyph-name="cacute" unicode="&#x107;" horiz-adv-x="551" 
d="M248 634l73 136h71l-84 -136h-60zM504 172q-2 -86 -56 -134.5t-164 -48.5q-127 0 -179 70t-52 207t52.5 208.5t178.5 71.5q217 0 220 -202h-65q-1 145 -155 145q-89 0 -126 -55t-37 -168q0 -114 37 -167t126 -53q152 0 154 126h66z" />
    <glyph glyph-name="Ccircumflex" unicode="&#x108;" horiz-adv-x="651" 
d="M476 766h-70l-70 70l-70 -70h-69l104 112h70zM601 229q-4 -124 -67.5 -185t-192.5 -61q-156 0 -222 92t-66 278q0 187 66 279.5t222 92.5q257 0 262 -255h-67q-7 192 -195 192q-117 0 -168 -75t-51 -234t51 -233t168 -74q184 0 193 183h67z" />
    <glyph glyph-name="ccircumflex" unicode="&#x109;" horiz-adv-x="551" 
d="M418 634h-66l-73 87l-73 -87h-65l106 134h63zM504 172q-2 -86 -56 -134.5t-164 -48.5q-127 0 -179 70t-52 207t52.5 208.5t178.5 71.5q217 0 220 -202h-65q-1 145 -155 145q-89 0 -126 -55t-37 -168q0 -114 37 -167t126 -53q152 0 154 126h66z" />
    <glyph glyph-name="Cdotaccent" unicode="&#x10a;" horiz-adv-x="651" 
d="M303 766v122h67v-122h-67zM601 229q-4 -124 -67.5 -185t-192.5 -61q-156 0 -222 92t-66 278q0 187 66 279.5t222 92.5q257 0 262 -255h-67q-7 192 -195 192q-117 0 -168 -75t-51 -234t51 -233t168 -74q184 0 193 183h67z" />
    <glyph glyph-name="cdotaccent" unicode="&#x10b;" horiz-adv-x="551" 
d="M246 642v113h67v-113h-67zM504 172q-2 -86 -56 -134.5t-164 -48.5q-127 0 -179 70t-52 207t52.5 208.5t178.5 71.5q217 0 220 -202h-65q-1 145 -155 145q-89 0 -126 -55t-37 -168q0 -114 37 -167t126 -53q152 0 154 126h66z" />
    <glyph glyph-name="Ccaron" unicode="&#x10c;" horiz-adv-x="651" 
d="M476 878l-105 -112h-70l-104 112h68l70 -70l71 70h70zM601 229q-4 -124 -67.5 -185t-192.5 -61q-156 0 -222 92t-66 278q0 187 66 279.5t222 92.5q257 0 262 -255h-67q-7 192 -195 192q-117 0 -168 -75t-51 -234t51 -233t168 -74q184 0 193 183h67z" />
    <glyph glyph-name="ccaron" unicode="&#x10d;" horiz-adv-x="551" 
d="M418 768l-108 -134h-63l-106 134h64l73 -86l73 86h67zM504 172q-2 -86 -56 -134.5t-164 -48.5q-127 0 -179 70t-52 207t52.5 208.5t178.5 71.5q217 0 220 -202h-65q-1 145 -155 145q-89 0 -126 -55t-37 -168q0 -114 37 -167t126 -53q152 0 154 126h66z" />
    <glyph glyph-name="Dcaron" unicode="&#x10e;" horiz-adv-x="676" 
d="M455 876l-105 -112h-70l-104 112h68l70 -70l71 70h70zM84 711h217q99 0 163 -21t98.5 -68.5t47.5 -109.5t13 -158t-13 -158t-47.5 -109.5t-98.5 -68.5t-163 -21h-217v714zM152 649v-591h160q137 -1 189.5 66t52.5 230t-52.5 229t-189.5 66h-160z" />
    <glyph glyph-name="dcaron" unicode="&#x10f;" horiz-adv-x="585" 
d="M535 617l49 143h59l-65 -143h-43zM461 0l-11 81q-49 -90 -188 -90q-209 0 -209 274q0 279 207 279q115 0 183 -83v291h65v-612l10 -140h-57zM274 52q119 0 169 94v244q-21 35 -63 64.5t-106 29.5q-155 0 -155 -219q0 -213 155 -213z" />
    <glyph glyph-name="Dcroat" unicode="&#x110;" horiz-adv-x="676" 
d="M84 329h-73v51h73v331h217q99 0 163 -21t98.5 -68.5t47.5 -109.5t13 -158t-13 -158t-47.5 -109.5t-98.5 -68.5t-163 -21h-217v332zM152 329v-271h160q137 -1 189.5 66t52.5 230t-52.5 229t-189.5 66h-160v-269h128v-51h-128z" />
    <glyph glyph-name="dcroat" unicode="&#x111;" horiz-adv-x="585" 
d="M508 589v-449l10 -140h-57l-11 81q-49 -90 -188 -90q-209 0 -209 274q0 279 207 279q115 0 183 -83v128h-135v51h135v112h65v-112h69v-51h-69zM274 52q119 0 169 94v244q-21 35 -63 64.5t-106 29.5q-155 0 -155 -219q0 -213 155 -213z" />
    <glyph glyph-name="Emacron" unicode="&#x112;" horiz-adv-x="562" 
d="M188 841h234v-54h-234v54zM84 0v708h445v-63h-377v-246h327v-61h-327v-275h382v-63h-450z" />
    <glyph glyph-name="emacron" unicode="&#x113;" horiz-adv-x="565" 
d="M170 712h234v-50h-234v50zM512 159q0 -25 -9 -50.5t-31 -54t-70.5 -47t-115.5 -18.5q-126 0 -179.5 70.5t-53.5 206.5q0 137 53.5 208.5t179.5 71.5q124 0 177 -69.5t53 -221.5h-395q2 -108 40 -158t125 -50q58 0 96 21t50.5 44.5t12.5 46.5h67zM286 489q-79 0 -118 -43
t-46 -132h324q-8 93 -46.5 134t-113.5 41z" />
    <glyph glyph-name="Ebreve" unicode="&#x114;" horiz-adv-x="562" 
d="M436 862q0 -37 -33.5 -69t-97.5 -32t-97.5 32t-33.5 69h58q0 -20 21 -37.5t52 -17.5t52.5 17.5t21.5 37.5h57zM84 0v708h445v-63h-377v-246h327v-61h-327v-275h382v-63h-450z" />
    <glyph glyph-name="ebreve" unicode="&#x115;" horiz-adv-x="565" 
d="M419 744q0 -38 -34 -74.5t-98 -36.5t-98 36.5t-34 74.5h58q0 -21 21.5 -43t52.5 -22t53 22t22 43h57zM512 159q0 -25 -9 -50.5t-31 -54t-70.5 -47t-115.5 -18.5q-126 0 -179.5 70.5t-53.5 206.5q0 137 53.5 208.5t179.5 71.5q124 0 177 -69.5t53 -221.5h-395
q2 -108 40 -158t125 -50q58 0 96 21t50.5 44.5t12.5 46.5h67zM286 489q-79 0 -118 -43t-46 -132h324q-8 93 -46.5 134t-113.5 41z" />
    <glyph glyph-name="Edotaccent" unicode="&#x116;" horiz-adv-x="562" 
d="M272 764v122h67v-122h-67zM84 0v708h445v-63h-377v-246h327v-61h-327v-275h382v-63h-450z" />
    <glyph glyph-name="edotaccent" unicode="&#x117;" horiz-adv-x="565" 
d="M254 642v113h67v-113h-67zM512 159q0 -25 -9 -50.5t-31 -54t-70.5 -47t-115.5 -18.5q-126 0 -179.5 70.5t-53.5 206.5q0 137 53.5 208.5t179.5 71.5q124 0 177 -69.5t53 -221.5h-395q2 -108 40 -158t125 -50q58 0 96 21t50.5 44.5t12.5 46.5h67zM286 489q-79 0 -118 -43
t-46 -132h324q-8 93 -46.5 134t-113.5 41z" />
    <glyph glyph-name="Eogonek" unicode="&#x118;" horiz-adv-x="562" 
d="M382 -111q0 63 80 111h-378v708h445v-63h-377v-246h327v-61h-327v-275h382v-63q-10 -5 -24 -13t-37.5 -33.5t-23.5 -50.5q0 -21 11.5 -31t29.5 -10q10 0 22 3t18 7l7 3v-43q-23 -18 -72 -18q-41 0 -62 21t-21 54z" />
    <glyph glyph-name="eogonek" unicode="&#x119;" horiz-adv-x="565" 
d="M282 -87q0 41 37 78q-20 -2 -33 -2q-126 0 -179.5 70.5t-53.5 206.5q0 137 53.5 208.5t179.5 71.5q124 0 177 -69.5t53 -221.5h-395q2 -108 40 -158t125 -50q58 0 96 21t50.5 44.5t12.5 46.5h67q0 -38 -22 -79t-74 -66q-67 -40 -67 -87q0 -21 11.5 -31t29.5 -10
q10 0 22 3t18 7l7 3v-43q-23 -18 -72 -18q-41 0 -62 21t-21 54zM286 489q-79 0 -118 -43t-46 -132h324q-8 93 -46.5 134t-113.5 41z" />
    <glyph glyph-name="Ecaron" unicode="&#x11a;" horiz-adv-x="562" 
d="M445 876l-105 -112h-70l-104 112h68l70 -70l71 70h70zM84 0v708h445v-63h-377v-246h327v-61h-327v-275h382v-63h-450z" />
    <glyph glyph-name="ecaron" unicode="&#x11b;" horiz-adv-x="565" 
d="M426 768l-108 -134h-63l-106 134h64l73 -86l73 86h67zM512 159q0 -25 -9 -50.5t-31 -54t-70.5 -47t-115.5 -18.5q-126 0 -179.5 70.5t-53.5 206.5q0 137 53.5 208.5t179.5 71.5q124 0 177 -69.5t53 -221.5h-395q2 -108 40 -158t125 -50q58 0 96 21t50.5 44.5t12.5 46.5
h67zM286 489q-79 0 -118 -43t-46 -132h324q-8 93 -46.5 134t-113.5 41z" />
    <glyph glyph-name="Gcircumflex" unicode="&#x11c;" horiz-adv-x="656" 
d="M476 766h-70l-70 70l-70 -70h-69l104 112h70zM594 80q0 -4 -9 -14.5t-29.5 -24.5t-49 -27t-73 -22t-94.5 -9q-155 0 -220.5 91.5t-65.5 277.5q0 187 65.5 280t220.5 93q127 0 192 -64.5t65 -170.5h-66q-1 75 -51.5 123.5t-139.5 48.5q-116 0 -166.5 -75.5t-50.5 -234.5
q0 -160 51 -234.5t168 -74.5q55 0 101.5 14.5t67.5 30.5t21 25v168h-154v62h217v-263z" />
    <glyph glyph-name="gcircumflex" unicode="&#x11d;" horiz-adv-x="585" 
d="M428 634h-66l-73 87l-73 -87h-65l106 134h63zM508 -1q0 -30 -1 -49.5t-5.5 -47.5t-13 -45.5t-25 -38t-40 -32t-59.5 -19t-82 -7.5q-62 0 -106.5 19.5t-63.5 47t-29 55t-10 46.5v20l70 1q0 -89 70 -120q29 -13 69 -13q44 0 75 10.5t47.5 25.5t25.5 42t11 49t2 58v68
q-54 -78 -181 -78q-209 0 -209 274q0 279 207 279q52 0 96 -19.5t62 -37t31 -35.5l11 83h58l-10 -135v-401zM274 52q119 0 169 94v244q-21 35 -63 64.5t-106 29.5q-155 0 -155 -219q0 -213 155 -213z" />
    <glyph glyph-name="Gbreve" unicode="&#x11e;" horiz-adv-x="656" 
d="M467 864q0 -37 -33.5 -69t-97.5 -32t-97.5 32t-33.5 69h58q0 -20 21 -37.5t52 -17.5t52.5 17.5t21.5 37.5h57zM594 80q0 -4 -9 -14.5t-29.5 -24.5t-49 -27t-73 -22t-94.5 -9q-155 0 -220.5 91.5t-65.5 277.5q0 187 65.5 280t220.5 93q127 0 192 -64.5t65 -170.5h-66
q-1 75 -51.5 123.5t-139.5 48.5q-116 0 -166.5 -75.5t-50.5 -234.5q0 -160 51 -234.5t168 -74.5q55 0 101.5 14.5t67.5 30.5t21 25v168h-154v62h217v-263z" />
    <glyph glyph-name="gbreve" unicode="&#x11f;" horiz-adv-x="585" 
d="M421 744q0 -38 -34 -74.5t-98 -36.5t-98 36.5t-34 74.5h58q0 -21 21.5 -43t52.5 -22t53 22t22 43h57zM508 -1q0 -30 -1 -49.5t-5.5 -47.5t-13 -45.5t-25 -38t-40 -32t-59.5 -19t-82 -7.5q-62 0 -106.5 19.5t-63.5 47t-29 55t-10 46.5v20l70 1q0 -89 70 -120
q29 -13 69 -13q44 0 75 10.5t47.5 25.5t25.5 42t11 49t2 58v68q-54 -78 -181 -78q-209 0 -209 274q0 279 207 279q52 0 96 -19.5t62 -37t31 -35.5l11 83h58l-10 -135v-401zM274 52q119 0 169 94v244q-21 35 -63 64.5t-106 29.5q-155 0 -155 -219q0 -213 155 -213z" />
    <glyph glyph-name="Gdotaccent" unicode="&#x120;" horiz-adv-x="656" 
d="M303 766v122h67v-122h-67zM594 80q0 -4 -9 -14.5t-29.5 -24.5t-49 -27t-73 -22t-94.5 -9q-155 0 -220.5 91.5t-65.5 277.5q0 187 65.5 280t220.5 93q127 0 192 -64.5t65 -170.5h-66q-1 75 -51.5 123.5t-139.5 48.5q-116 0 -166.5 -75.5t-50.5 -234.5q0 -160 51 -234.5
t168 -74.5q55 0 101.5 14.5t67.5 30.5t21 25v168h-154v62h217v-263z" />
    <glyph glyph-name="gdotaccent" unicode="&#x121;" horiz-adv-x="585" 
d="M256 642v113h67v-113h-67zM508 -1q0 -30 -1 -49.5t-5.5 -47.5t-13 -45.5t-25 -38t-40 -32t-59.5 -19t-82 -7.5q-62 0 -106.5 19.5t-63.5 47t-29 55t-10 46.5v20l70 1q0 -89 70 -120q29 -13 69 -13q44 0 75 10.5t47.5 25.5t25.5 42t11 49t2 58v68q-54 -78 -181 -78
q-209 0 -209 274q0 279 207 279q52 0 96 -19.5t62 -37t31 -35.5l11 83h58l-10 -135v-401zM274 52q119 0 169 94v244q-21 35 -63 64.5t-106 29.5q-155 0 -155 -219q0 -213 155 -213z" />
    <glyph glyph-name="Gcommaaccent" unicode="&#x122;" horiz-adv-x="656" 
d="M594 80q0 -4 -9 -14.5t-29.5 -24.5t-49 -27t-73 -22t-94.5 -9q-155 0 -220.5 91.5t-65.5 277.5q0 187 65.5 280t220.5 93q127 0 192 -64.5t65 -170.5h-66q-1 75 -51.5 123.5t-139.5 48.5q-116 0 -166.5 -75.5t-50.5 -234.5q0 -160 51 -234.5t168 -74.5q55 0 101.5 14.5
t67.5 30.5t21 25v168h-154v62h217v-263zM287 -237q16 37 29 91q5 22 8.5 44t3.5 34l1 11h61q-4 -46 -18 -93q-8 -25 -17 -46.5t-15 -31.5l-5 -9h-48z" />
    <glyph glyph-name="gcommaaccent" unicode="&#x123;" horiz-adv-x="585" 
d="M354 785q-20 -42 -35 -109q-7 -29 -10 -54.5t-3 -35.5v-11h-62q1 41 18 105q8 31 19.5 57t18.5 37l7 11h47zM508 -1q0 -30 -1 -49.5t-5.5 -47.5t-13 -45.5t-25 -38t-40 -32t-59.5 -19t-82 -7.5q-62 0 -106.5 19.5t-63.5 47t-29 55t-10 46.5v20l70 1q0 -89 70 -120
q29 -13 69 -13q44 0 75 10.5t47.5 25.5t25.5 42t11 49t2 58v68q-54 -78 -181 -78q-209 0 -209 274q0 279 207 279q52 0 96 -19.5t62 -37t31 -35.5l11 83h58l-10 -135v-401zM274 52q119 0 169 94v244q-21 35 -63 64.5t-106 29.5q-155 0 -155 -219q0 -213 155 -213z" />
    <glyph glyph-name="Hcircumflex" unicode="&#x124;" horiz-adv-x="687" 
d="M483 764h-70l-70 70l-70 -70h-69l104 112h70zM84 0v708h68v-308h383v308h68v-708h-68v337h-383v-337h-68z" />
    <glyph glyph-name="hcircumflex" unicode="&#x125;" horiz-adv-x="585" 
d="M258 783h-70l-70 70l-70 -70h-69l104 112h70zM83 0v752h66v-299q63 90 193 90q91 0 133.5 -52t42.5 -174v-317h-66v320q0 82 -29.5 121.5t-102.5 39.5q-64 0 -106 -33t-65 -74v-374h-66z" />
    <glyph glyph-name="Hbar" unicode="&#x126;" horiz-adv-x="687" 
d="M603 522v-522h-68v337h-383v-337h-68v522h-57v57h57v129h68v-129h383v129h68v-129h56v-57h-56zM535 400v122h-383v-122h383z" />
    <glyph glyph-name="hbar" unicode="&#x127;" horiz-adv-x="585" 
d="M149 591v-138q63 90 193 90q91 0 133.5 -52t42.5 -174v-317h-66v320q0 82 -29.5 121.5t-102.5 39.5q-64 0 -106 -33t-65 -74v-374h-66v591h-74v51h74v110h66v-110h129v-51h-129z" />
    <glyph glyph-name="Itilde" unicode="&#x128;" horiz-adv-x="236" 
d="M255 864q0 -100 -80 -100q-29 0 -45.5 11.5t-29 23t-31.5 11.5q-39 0 -39 -46h-48q0 99 80 99q35 0 60 -23t46 -23q38 0 38 47h49zM84 0v708h68v-708h-68z" />
    <glyph glyph-name="itilde" unicode="&#x129;" horiz-adv-x="227" 
d="M250 734q0 -100 -79 -100q-34 0 -62.5 24.5t-46.5 24.5q-37 0 -37 -48h-48q0 100 79 100q34 0 62 -24t47 -24q37 0 37 47h48zM80 0v535h66v-535h-66z" />
    <glyph glyph-name="Imacron" unicode="&#x12a;" horiz-adv-x="236" 
d="M1 841h234v-54h-234v54zM84 0v708h68v-708h-68z" />
    <glyph glyph-name="imacron" unicode="&#x12b;" horiz-adv-x="227" 
d="M-4 712h234v-50h-234v50zM80 0v535h66v-535h-66z" />
    <glyph glyph-name="Ibreve" unicode="&#x12c;" horiz-adv-x="236" 
d="M249 862q0 -37 -33.5 -69t-97.5 -32t-97.5 32t-33.5 69h58q0 -20 21 -37.5t52 -17.5t52.5 17.5t21.5 37.5h57zM84 0v708h68v-708h-68z" />
    <glyph glyph-name="ibreve" unicode="&#x12d;" horiz-adv-x="227" 
d="M245 744q0 -38 -34 -74.5t-98 -36.5t-98 36.5t-34 74.5h58q0 -21 21.5 -43t52.5 -22t53 22t22 43h57zM80 0v535h66v-535h-66z" />
    <glyph glyph-name="Iogonek" unicode="&#x12e;" horiz-adv-x="236" 
d="M-8 -110q0 24 12.5 46.5t32 38t29.5 22t18 10.5v701h68v-708h-11q-11 -5 -27 -15.5t-35.5 -34t-19.5 -46.5q0 -21 11.5 -31t29.5 -10q10 0 22 3.5t18 6.5l7 3v-43q-23 -18 -72 -18q-41 0 -62 20.5t-21 54.5z" />
    <glyph glyph-name="iogonek" unicode="&#x12f;" horiz-adv-x="227" 
d="M80 642v113h67v-113h-67zM-11 -110q0 62 91 117v528h66v-535h-8q-11 -5 -27 -15.5t-35.5 -34t-19.5 -46.5q0 -21 11.5 -31t29.5 -10q10 0 22 3.5t19 6.5l6 3v-43q-23 -18 -72 -18q-42 0 -62.5 20.5t-20.5 54.5z" />
    <glyph glyph-name="Idotaccent" unicode="&#x130;" horiz-adv-x="236" 
d="M85 764v122h67v-122h-67zM84 0v708h68v-708h-68z" />
    <glyph glyph-name="dotlessi" unicode="&#x131;" horiz-adv-x="227" 
d="M80 0v535h66v-535h-66z" />
    <glyph glyph-name="IJ" unicode="&#x132;" horiz-adv-x="593" 
d="M84 0v708h68v-708h-68zM522 269q0 -81 -7.5 -126.5t-32 -81t-70.5 -48.5t-124 -13h-51v67h51q103 0 134 41.5t31 160.5l1 439h68v-439z" />
    <glyph glyph-name="ij" unicode="&#x133;" horiz-adv-x="467" 
d="M80 642v113h67v-113h-67zM320 642v113h67v-113h-67zM80 0v535h66v-535h-66zM386 43q0 -34 -0.5 -52.5t-3 -44.5t-7.5 -39.5t-13.5 -30.5t-22 -25.5t-32.5 -17t-45 -11.5t-60 -3v63q25 0 43.5 3.5t31.5 8t21 16.5t12.5 21t6.5 30.5t2.5 36t0.5 45.5v492h66v-492z" />
    <glyph glyph-name="Jcircumflex" unicode="&#x134;" horiz-adv-x="357" 
d="M391 764h-70l-70 70l-70 -70h-69l104 112h70zM286 269q0 -81 -7.5 -126.5t-32 -81t-70.5 -48.5t-124 -13h-51v67h51q103 0 134 41.5t31 160.5l1 439h68v-439z" />
    <glyph glyph-name="jcircumflex" unicode="&#x135;" horiz-adv-x="236" 
d="M261 634h-66l-73 87l-73 -87h-65l106 134h63zM155 43q0 -34 -0.5 -52.5t-3 -44.5t-7.5 -39.5t-13.5 -30.5t-22 -25.5t-32.5 -17t-45 -11.5t-60 -3v63q25 0 43.5 3.5t31.5 8t21 16.5t12.5 21t6.5 30.5t2.5 36t0.5 45.5v492h66v-492z" />
    <glyph glyph-name="Kcommaaccent" unicode="&#x136;" horiz-adv-x="620" 
d="M84 0v708h68v-438l367 438h87l-251 -294l253 -414h-79l-219 361l-158 -187v-174h-68zM243 -219q16 37 29 91q5 22 8.5 44t3.5 34l1 11h61q-4 -46 -18 -93q-8 -25 -17 -46.5t-15 -31.5l-5 -9h-48z" />
    <glyph glyph-name="kcommaaccent" unicode="&#x137;" horiz-adv-x="501" 
d="M83 0v752h64v-514l248 297h76l-171 -200l198 -335h-75l-165 285l-111 -130v-155h-64zM209 -219q16 37 29 91q5 22 8.5 44t3.5 34l1 11h61q-4 -46 -18 -93q-8 -25 -17 -46.5t-15 -31.5l-5 -9h-48z" />
    <glyph glyph-name="kgreenlandic" unicode="&#x138;" horiz-adv-x="501" 
d="M83 0v535h64v-297l248 297h76l-171 -200l198 -335h-75l-165 285l-111 -130v-155h-64z" />
    <glyph glyph-name="Lacute" unicode="&#x139;" horiz-adv-x="498" 
d="M91 764l73 114h81l-85 -114h-69zM84 0v708h68v-644h332v-64h-400z" />
    <glyph glyph-name="lacute" unicode="&#x13a;" horiz-adv-x="231" 
d="M79 814l73 114h81l-85 -114h-69zM83 0v752h66v-752h-66z" />
    <glyph glyph-name="Lcommaaccent" unicode="&#x13b;" horiz-adv-x="498" 
d="M84 0v708h68v-644h332v-64h-400zM212 -219q16 37 29 91q5 22 8.5 44t4.5 34v11h61q-4 -46 -18 -93q-8 -25 -17 -46.5t-14 -31.5l-6 -9h-48z" />
    <glyph glyph-name="lcommaaccent" unicode="&#x13c;" horiz-adv-x="231" 
d="M83 0v752h66v-752h-66zM44 -219q16 37 29 91q5 22 8.5 44t4.5 34v11h61q-4 -46 -18 -93q-8 -25 -17 -46.5t-14 -31.5l-6 -9h-48z" />
    <glyph glyph-name="Lcaron" unicode="&#x13d;" horiz-adv-x="498" 
d="M252 629l51 133h62l-62 -133h-51zM84 0v708h68v-644h332v-64h-400z" />
    <glyph glyph-name="lcaron" unicode="&#x13e;" horiz-adv-x="231" 
d="M189 617l49 143h59l-65 -143h-43zM83 0v752h66v-752h-66z" />
    <glyph glyph-name="Ldot" unicode="&#x13f;" horiz-adv-x="497" 
d="M84 0v708h69v-644h330v-64h-399zM313 301v122h67v-122h-67z" />
    <glyph glyph-name="ldot" unicode="&#x140;" horiz-adv-x="253" 
d="M85 0v760h65v-760h-65zM192 319v122h67v-122h-67z" />
    <glyph glyph-name="Lslash" unicode="&#x141;" horiz-adv-x="498" 
d="M152 353v-289h332v-64h-400v312l-77 -46l-24 44l101 61v337h68v-296l79 48l24 -45z" />
    <glyph glyph-name="lslash" unicode="&#x142;" horiz-adv-x="231" 
d="M83 0v330l-75 -45l-24 44l99 60v363h66v-323l83 50l24 -45l-107 -65v-369h-66z" />
    <glyph glyph-name="Nacute" unicode="&#x143;" horiz-adv-x="714" 
d="M323 764l73 114h81l-85 -114h-69zM148 619v-619h-64l4 708h72l408 -615l-3 615h65v-708h-72z" />
    <glyph glyph-name="nacute" unicode="&#x144;" horiz-adv-x="584" 
d="M269 634l73 136h71l-84 -136h-60zM83 0v396l-10 139h57l12 -91q62 99 199 99q91 0 133.5 -52t42.5 -175v-316h-66v318q0 84 -29.5 123.5t-102.5 39.5q-110 0 -170 -105v-376h-66z" />
    <glyph glyph-name="Ncommaaccent" unicode="&#x145;" horiz-adv-x="714" 
d="M148 619v-619h-64l4 708h72l408 -615l-3 615h65v-708h-72zM302 -219q16 37 29 91q5 22 8.5 44t4.5 34v11h61q-4 -46 -18 -93q-8 -25 -17 -46.5t-14 -31.5l-6 -9h-48z" />
    <glyph glyph-name="ncommaaccent" unicode="&#x146;" horiz-adv-x="584" 
d="M83 0v396l-10 139h57l12 -91q62 99 199 99q91 0 133.5 -52t42.5 -175v-316h-66v318q0 84 -29.5 123.5t-102.5 39.5q-110 0 -170 -105v-376h-66zM235 -219q16 37 29 91q5 22 8.5 44t3.5 34l1 11h61q-4 -46 -18 -93q-8 -25 -17 -46.5t-15 -31.5l-5 -9h-48z" />
    <glyph glyph-name="Ncaron" unicode="&#x147;" horiz-adv-x="714" 
d="M499 876l-105 -112h-70l-104 112h68l70 -70l71 70h70zM148 619v-619h-64l4 708h72l408 -615l-3 615h65v-708h-72z" />
    <glyph glyph-name="ncaron" unicode="&#x148;" horiz-adv-x="584" 
d="M439 768l-108 -134h-63l-106 134h64l73 -86l73 86h67zM83 0v396l-10 139h57l12 -91q62 99 199 99q91 0 133.5 -52t42.5 -175v-316h-66v318q0 84 -29.5 123.5t-102.5 39.5q-110 0 -170 -105v-376h-66z" />
    <glyph glyph-name="Eng" unicode="&#x14a;" horiz-adv-x="713" 
d="M629 708v-708q0 -115 -38 -168t-148 -53h-49v54h49q72 0 99.5 38.5t27.5 128.5l-422 616v-616h-64l4 708h70l411 -603l-3 603h63z" />
    <glyph glyph-name="eng" unicode="&#x14b;" horiz-adv-x="584" 
d="M82 0v396l-9 139h57l11 -92q24 39 72.5 69.5t127.5 30.5q91 0 133.5 -52t42.5 -175v-261q0 -34 -0.5 -52.5t-3 -44.5t-7.5 -39.5t-13.5 -30.5t-22 -25.5t-32.5 -17t-45 -11.5t-60 -3v64q73 0 94.5 26t23.5 94v303q0 84 -29.5 123.5t-102.5 39.5q-64 0 -106 -33t-65 -74
v-374h-66z" />
    <glyph glyph-name="Omacron" unicode="&#x14c;" horiz-adv-x="690" 
d="M228 843h234v-54h-234v54zM637 353q0 -186 -67 -278t-225 -92q-159 0 -225.5 92t-66.5 278q0 187 66.5 279.5t225.5 92.5q158 0 225 -92.5t67 -279.5zM122 353q0 -159 51.5 -233t171.5 -74t171.5 74t51.5 233q0 160 -51.5 234.5t-171.5 74.5t-171.5 -74.5t-51.5 -234.5z
" />
    <glyph glyph-name="omacron" unicode="&#x14d;" horiz-adv-x="576" 
d="M171 705h234v-50h-234v50zM523 266q0 -138 -52.5 -207.5t-182.5 -69.5q-131 0 -183 69.5t-52 207.5q0 139 52.5 209.5t182.5 70.5q130 1 182.5 -70t52.5 -210zM121 266q0 -115 37 -167.5t130 -52.5t130 52.5t37 167.5t-37 169t-130 54t-130 -54t-37 -169z" />
    <glyph glyph-name="Obreve" unicode="&#x14e;" horiz-adv-x="690" 
d="M476 864q0 -37 -33.5 -69t-97.5 -32t-97.5 32t-33.5 69h58q0 -20 21 -37.5t52 -17.5t52.5 17.5t21.5 37.5h57zM637 353q0 -186 -67 -278t-225 -92q-159 0 -225.5 92t-66.5 278q0 187 66.5 279.5t225.5 92.5q158 0 225 -92.5t67 -279.5zM122 353q0 -159 51.5 -233
t171.5 -74t171.5 74t51.5 233q0 160 -51.5 234.5t-171.5 74.5t-171.5 -74.5t-51.5 -234.5z" />
    <glyph glyph-name="obreve" unicode="&#x14f;" horiz-adv-x="576" 
d="M420 737q0 -38 -34 -74.5t-98 -36.5t-98 36.5t-34 74.5h58q0 -21 21.5 -43t52.5 -22t53 22t22 43h57zM523 266q0 -138 -52.5 -207.5t-182.5 -69.5q-131 0 -183 69.5t-52 207.5q0 139 52.5 209.5t182.5 70.5q130 1 182.5 -70t52.5 -210zM121 266q0 -115 37 -167.5
t130 -52.5t130 52.5t37 167.5t-37 169t-130 54t-130 -54t-37 -169z" />
    <glyph glyph-name="Ohungarumlaut" unicode="&#x150;" horiz-adv-x="690" 
d="M233 767l66 113h73l-78 -113h-61zM368 767l79 113h73l-91 -113h-61zM637 353q0 -186 -67 -278t-225 -92q-159 0 -225.5 92t-66.5 278q0 187 66.5 279.5t225.5 92.5q158 0 225 -92.5t67 -279.5zM122 353q0 -159 51.5 -233t171.5 -74t171.5 74t51.5 233q0 160 -51.5 234.5
t-171.5 74.5t-171.5 -74.5t-51.5 -234.5z" />
    <glyph glyph-name="ohungarumlaut" unicode="&#x151;" horiz-adv-x="576" 
d="M175 627l66 136h72l-79 -136h-59zM310 627l78 136h72l-90 -136h-60zM523 266q0 -138 -52.5 -207.5t-182.5 -69.5q-131 0 -183 69.5t-52 207.5q0 139 52.5 209.5t182.5 70.5q130 1 182.5 -70t52.5 -210zM121 266q0 -115 37 -167.5t130 -52.5t130 52.5t37 167.5t-37 169
t-130 54t-130 -54t-37 -169z" />
    <glyph glyph-name="OE" unicode="&#x152;" horiz-adv-x="959" 
d="M345 0q-159 0 -225.5 88.5t-66.5 264.5t66.5 265.5t225.5 89.5h581v-63h-377v-246h327v-61h-327v-275h382v-63h-586zM122 353q0 -149 51.5 -222t171.5 -73h136v592h-136q-119 0 -171 -74t-52 -223z" />
    <glyph glyph-name="oe" unicode="&#x153;" horiz-adv-x="967" 
d="M914 159q0 -25 -9 -50.5t-31 -54t-70.5 -47t-115.5 -18.5q-156 0 -199 118q-21 -59 -68.5 -88.5t-132.5 -29.5q-131 0 -183 69.5t-52 207.5q0 139 52.5 209.5t182.5 70.5q159 0 201 -120q44 120 199 120q124 0 177 -69.5t53 -221.5h-395q2 -108 40 -158t125 -50
q58 0 96 21t50.5 44.5t12.5 46.5h67zM121 266q0 -115 37 -167.5t130 -52.5t130 52.5t37 167.5q0 116 -37 169.5t-130 53.5t-130 -53.5t-37 -169.5zM688 489q-79 0 -118 -43t-46 -132h324q-8 93 -46.5 134t-113.5 41z" />
    <glyph glyph-name="Racute" unicode="&#x154;" horiz-adv-x="654" 
d="M284 764l73 114h81l-85 -114h-69zM84 0v711h242q148 0 211.5 -45t63.5 -170q0 -96 -36.5 -143t-115.5 -62l162 -291h-74l-154 283q-18 -1 -59 -1h-172v-282h-68zM152 649v-305l168 -1q55 0 88.5 4.5t64 20t44.5 47t14 81.5q0 41 -10 69.5t-26.5 44.5t-45 25t-57 11.5
t-72.5 2.5h-168z" />
    <glyph glyph-name="racute" unicode="&#x155;" horiz-adv-x="356" 
d="M161 634l73 136h71l-84 -136h-60zM83 0v384l-10 151h57l12 -105q7 18 19.5 34.5t34.5 36.5t58.5 32t81.5 12v-62q-49 0 -86.5 -17.5t-57.5 -45.5t-29.5 -48t-13.5 -39v-333h-66z" />
    <glyph glyph-name="Rcommaaccent" unicode="&#x156;" horiz-adv-x="654" 
d="M84 0v711h242q148 0 211.5 -45t63.5 -170q0 -96 -36.5 -143t-115.5 -62l162 -291h-74l-154 283q-18 -1 -59 -1h-172v-282h-68zM152 649v-305l168 -1q55 0 88.5 4.5t64 20t44.5 47t14 81.5q0 41 -10 69.5t-26.5 44.5t-45 25t-57 11.5t-72.5 2.5h-168zM259 -219
q16 37 29 91q5 22 8.5 44t3.5 34l1 11h61q-4 -46 -18 -93q-8 -25 -17 -46.5t-15 -31.5l-5 -9h-48z" />
    <glyph glyph-name="rcommaaccent" unicode="&#x157;" horiz-adv-x="356" 
d="M83 0v384l-10 151h57l12 -105q7 18 19.5 34.5t34.5 36.5t58.5 32t81.5 12v-62q-49 0 -86.5 -17.5t-57.5 -45.5t-29.5 -48t-13.5 -39v-333h-66zM42 -219q16 37 29 91q5 22 8.5 44t4.5 34v11h61q-4 -46 -18 -93q-8 -25 -17 -46.5t-14 -31.5l-6 -9h-48z" />
    <glyph glyph-name="Rcaron" unicode="&#x158;" horiz-adv-x="654" 
d="M460 876l-105 -112h-70l-104 112h68l70 -70l71 70h70zM84 0v711h242q148 0 211.5 -45t63.5 -170q0 -96 -36.5 -143t-115.5 -62l162 -291h-74l-154 283q-18 -1 -59 -1h-172v-282h-68zM152 649v-305l168 -1q55 0 88.5 4.5t64 20t44.5 47t14 81.5q0 41 -10 69.5t-26.5 44.5
t-45 25t-57 11.5t-72.5 2.5h-168z" />
    <glyph glyph-name="rcaron" unicode="&#x159;" horiz-adv-x="356" 
d="M331 768l-108 -134h-63l-106 134h64l73 -86l73 86h67zM83 0v384l-10 151h57l12 -105q7 18 19.5 34.5t34.5 36.5t58.5 32t81.5 12v-62q-49 0 -86.5 -17.5t-57.5 -45.5t-29.5 -48t-13.5 -39v-333h-66z" />
    <glyph glyph-name="Sacute" unicode="&#x15a;" horiz-adv-x="618" 
d="M271 766l73 114h81l-85 -114h-69zM572 178q0 -98 -67 -147.5t-194 -47.5q-262 2 -262 231h67q0 -169 197 -170q191 -3 191 132q0 43 -24.5 72.5t-64 45t-87.5 27.5t-95.5 26t-87 34.5t-64 59t-24.5 93.5q0 90 62.5 141t186.5 50q137 -1 193.5 -55t56.5 -154h-67
q0 30 -6.5 52.5t-24 45.5t-56.5 36t-96 14q-97 1 -139.5 -35.5t-42.5 -92.5q0 -42 24.5 -71t64 -44.5t87.5 -27.5t96 -26.5t87.5 -35t64 -59.5t24.5 -94z" />
    <glyph glyph-name="sacute" unicode="&#x15b;" horiz-adv-x="517" 
d="M228 634l73 136h71l-84 -136h-60zM478 140q0 -154 -220 -151q-105 1 -161.5 47.5t-56.5 133.5h66q0 -58 39 -89.5t113 -32.5q152 -3 152 96q1 41 -35.5 63.5t-89.5 32.5t-105.5 22.5t-90 46t-38.5 90.5q-1 70 52 109t158 38q102 -1 152.5 -44.5t50.5 -125.5h-66
q0 53 -31 82.5t-105 30.5q-144 3 -144 -94q0 -32 26.5 -52.5t66.5 -28t87 -19t87 -25t66.5 -47t26.5 -83.5z" />
    <glyph glyph-name="Scircumflex" unicode="&#x15c;" horiz-adv-x="618" 
d="M447 766h-70l-70 70l-70 -70h-69l104 112h70zM572 178q0 -98 -67 -147.5t-194 -47.5q-262 2 -262 231h67q0 -169 197 -170q191 -3 191 132q0 43 -24.5 72.5t-64 45t-87.5 27.5t-95.5 26t-87 34.5t-64 59t-24.5 93.5q0 90 62.5 141t186.5 50q137 -1 193.5 -55t56.5 -154
h-67q0 30 -6.5 52.5t-24 45.5t-56.5 36t-96 14q-97 1 -139.5 -35.5t-42.5 -92.5q0 -42 24.5 -71t64 -44.5t87.5 -27.5t96 -26.5t87.5 -35t64 -59.5t24.5 -94z" />
    <glyph glyph-name="scircumflex" unicode="&#x15d;" horiz-adv-x="517" 
d="M398 634h-66l-73 87l-73 -87h-65l106 134h63zM478 140q0 -154 -220 -151q-105 1 -161.5 47.5t-56.5 133.5h66q0 -58 39 -89.5t113 -32.5q152 -3 152 96q1 41 -35.5 63.5t-89.5 32.5t-105.5 22.5t-90 46t-38.5 90.5q-1 70 52 109t158 38q102 -1 152.5 -44.5t50.5 -125.5
h-66q0 53 -31 82.5t-105 30.5q-144 3 -144 -94q0 -32 26.5 -52.5t66.5 -28t87 -19t87 -25t66.5 -47t26.5 -83.5z" />
    <glyph glyph-name="Scedilla" unicode="&#x15e;" horiz-adv-x="618" 
d="M406 -147q0 -47 -28.5 -65.5t-92.5 -18.5q-16 0 -31.5 1.5t-22.5 3.5l-7 2v43q0 -1 5.5 -2.5t16.5 -3t24 -1.5q39 0 55 9.5t16 36.5q0 46 -84 46h-6l35 80q-237 12 -237 230h67q0 -169 197 -170q191 -3 191 132q0 43 -24.5 72.5t-64 45t-87.5 27.5t-95.5 26t-87 34.5
t-64 59t-24.5 93.5q0 90 62.5 141t186.5 50q137 -1 193.5 -55t56.5 -154h-67q0 30 -6.5 52.5t-24 45.5t-56.5 36t-96 14q-97 1 -139.5 -35.5t-42.5 -92.5q0 -42 24.5 -71t64 -44.5t87.5 -27.5t96 -26.5t87.5 -35t64 -59.5t24.5 -94q0 -90 -57 -139t-167 -55l-25 -56
q83 -7 83 -75z" />
    <glyph glyph-name="scedilla" unicode="&#x15f;" horiz-adv-x="517" 
d="M355 -132q0 -47 -28.5 -65.5t-92.5 -18.5q-16 0 -31.5 2t-22.5 4l-7 1v43q0 -1 5.5 -2.5t16.5 -3t24 -1.5q39 0 55 9.5t16 36.5q0 46 -84 46h-6l31 71q-92 7 -141.5 52.5t-49.5 127.5h66q0 -58 39 -89.5t113 -32.5q152 -3 152 96q1 41 -35.5 63.5t-89.5 32.5t-105.5 22.5
t-90 46t-38.5 90.5q-1 70 52 109t158 38q102 -1 152.5 -44.5t50.5 -125.5h-66q0 53 -31 82.5t-105 30.5q-144 3 -144 -94q0 -32 26.5 -52.5t66.5 -28t87 -19t87 -25t66.5 -47t26.5 -83.5q0 -140 -185 -150l-21 -47q83 -7 83 -75z" />
    <glyph glyph-name="Scaron" unicode="&#x160;" horiz-adv-x="618" 
d="M447 878l-105 -112h-70l-104 112h68l70 -70l71 70h70zM572 178q0 -98 -67 -147.5t-194 -47.5q-262 2 -262 231h67q0 -169 197 -170q191 -3 191 132q0 43 -24.5 72.5t-64 45t-87.5 27.5t-95.5 26t-87 34.5t-64 59t-24.5 93.5q0 90 62.5 141t186.5 50q137 -1 193.5 -55
t56.5 -154h-67q0 30 -6.5 52.5t-24 45.5t-56.5 36t-96 14q-97 1 -139.5 -35.5t-42.5 -92.5q0 -42 24.5 -71t64 -44.5t87.5 -27.5t96 -26.5t87.5 -35t64 -59.5t24.5 -94z" />
    <glyph glyph-name="scaron" unicode="&#x161;" horiz-adv-x="517" 
d="M398 768l-108 -134h-63l-106 134h64l73 -86l73 86h67zM478 140q0 -154 -220 -151q-105 1 -161.5 47.5t-56.5 133.5h66q0 -58 39 -89.5t113 -32.5q152 -3 152 96q1 41 -35.5 63.5t-89.5 32.5t-105.5 22.5t-90 46t-38.5 90.5q-1 70 52 109t158 38q102 -1 152.5 -44.5
t50.5 -125.5h-66q0 53 -31 82.5t-105 30.5q-144 3 -144 -94q0 -32 26.5 -52.5t66.5 -28t87 -19t87 -25t66.5 -47t26.5 -83.5z" />
    <glyph glyph-name="uni0162" unicode="&#x162;" horiz-adv-x="550" 
d="M356 -133q0 -47 -28.5 -65.5t-92.5 -18.5q-16 0 -31.5 1.5t-22.5 3.5l-7 2v43q0 -1 5.5 -2.5t16.5 -3t24 -1.5q39 0 55 9.5t16 36.5q0 46 -84 46h-6l36 82l3 645h-231v63h532v-63h-233l-3 -645h-6l-26 -58q83 -7 83 -75z" />
    <glyph glyph-name="uni0163" unicode="&#x163;" horiz-adv-x="316" 
d="M290 -121q0 -47 -28.5 -65.5t-92.5 -18.5q-16 0 -31.5 1.5t-22.5 3.5l-7 2v43q0 -1 5.5 -2.5t16.5 -3t24 -1.5q39 0 55 9.5t16 36.5q0 46 -84 46h-6l36 82q-49 20 -64 66t-15 126v272h-68v59h68v158l66 13v-171h140v-59h-140v-270q0 -76 19.5 -111t83.5 -35h40v-62h-44
q-21 0 -30 1l-20 -45q83 -7 83 -75z" />
    <glyph glyph-name="Tcaron" unicode="&#x164;" horiz-adv-x="550" 
d="M415 876l-105 -112h-70l-104 112h68l70 -70l71 70h70zM237 0l3 645h-231v63h532v-63h-233l-3 -645h-68z" />
    <glyph glyph-name="tcaron" unicode="&#x165;" horiz-adv-x="316" 
d="M213 601l49 143h59l-65 -143h-43zM301 -2h-44q-45 0 -76 11t-48.5 27.5t-26.5 45.5t-11.5 55.5t-2.5 66.5v272h-68v59h68v158l66 13v-171h140v-59h-140v-270q0 -76 19.5 -111t83.5 -35h40v-62z" />
    <glyph glyph-name="Tbar" unicode="&#x166;" horiz-adv-x="550" 
d="M237 0l1 313h-98v51h98l2 281h-231v63h532v-63h-233l-2 -281h103v-51h-103l-1 -313h-68z" />
    <glyph glyph-name="tbar" unicode="&#x167;" horiz-adv-x="316" 
d="M158 256v-50q0 -76 19.5 -111t83.5 -35h40v-62h-44q-45 0 -76 11t-48.5 27.5t-26.5 45.5t-11.5 55.5t-2.5 66.5v52h-68v51h68v169h-68v59h68v158l66 13v-171h140v-59h-140v-169h135v-51h-135z" />
    <glyph glyph-name="Utilde" unicode="&#x168;" horiz-adv-x="678" 
d="M477 864q0 -100 -80 -100q-29 0 -45.5 11.5t-29 23t-31.5 11.5q-39 0 -39 -46h-48q0 99 80 99q35 0 60 -23t46 -23q38 0 38 47h49zM607 347q0 -74 -5.5 -126t-22.5 -99.5t-46.5 -76.5t-77.5 -45.5t-116 -16.5t-116 16.5t-77.5 45.5t-46.5 76.5t-22.5 99.5t-5.5 126v361
h68v-357q0 -162 41.5 -233t158.5 -71q116 0 157.5 71t41.5 233v357h69v-361z" />
    <glyph glyph-name="utilde" unicode="&#x169;" horiz-adv-x="582" 
d="M427 734q0 -100 -79 -100q-34 0 -62.5 24.5t-46.5 24.5q-37 0 -37 -48h-48q0 100 79 100q33 0 62 -24t47 -24q37 0 37 47h48zM457 0l-13 104q-8 -16 -21 -32t-36.5 -35.5t-61.5 -32t-84 -12.5q-91 0 -133.5 52t-42.5 174l1 317h65v-319q0 -82 30 -122t102 -40q38 0 70 13
t53 34.5t33 39t20 35.5v359h66v-387l10 -148h-58z" />
    <glyph glyph-name="Umacron" unicode="&#x16a;" horiz-adv-x="678" 
d="M223 841h234v-54h-234v54zM607 347q0 -74 -5.5 -126t-22.5 -99.5t-46.5 -76.5t-77.5 -45.5t-116 -16.5t-116 16.5t-77.5 45.5t-46.5 76.5t-22.5 99.5t-5.5 126v361h68v-357q0 -162 41.5 -233t158.5 -71q116 0 157.5 71t41.5 233v357h69v-361z" />
    <glyph glyph-name="umacron" unicode="&#x16b;" horiz-adv-x="582" 
d="M173 712h234v-50h-234v50zM457 0l-13 104q-8 -16 -21 -32t-36.5 -35.5t-61.5 -32t-84 -12.5q-91 0 -133.5 52t-42.5 174l1 317h65v-319q0 -82 30 -122t102 -40q38 0 70 13t53 34.5t33 39t20 35.5v359h66v-387l10 -148h-58z" />
    <glyph glyph-name="Ubreve" unicode="&#x16c;" horiz-adv-x="678" 
d="M471 862q0 -37 -33.5 -69t-97.5 -32t-97.5 32t-33.5 69h58q0 -20 21 -37.5t52 -17.5t52.5 17.5t21.5 37.5h57zM607 347q0 -74 -5.5 -126t-22.5 -99.5t-46.5 -76.5t-77.5 -45.5t-116 -16.5t-116 16.5t-77.5 45.5t-46.5 76.5t-22.5 99.5t-5.5 126v361h68v-357
q0 -162 41.5 -233t158.5 -71q116 0 157.5 71t41.5 233v357h69v-361z" />
    <glyph glyph-name="ubreve" unicode="&#x16d;" horiz-adv-x="582" 
d="M422 744q0 -38 -34 -74.5t-98 -36.5t-98 36.5t-34 74.5h58q0 -21 21.5 -43t52.5 -22t53 22t22 43h57zM457 0l-13 104q-8 -16 -21 -32t-36.5 -35.5t-61.5 -32t-84 -12.5q-91 0 -133.5 52t-42.5 174l1 317h65v-319q0 -82 30 -122t102 -40q38 0 70 13t53 34.5t33 39t20 35.5
v359h66v-387l10 -148h-58z" />
    <glyph glyph-name="Uring" unicode="&#x16e;" horiz-adv-x="678" 
d="M429 840q0 -38 -24 -61t-65 -23t-64.5 23t-23.5 61t23.5 61t64.5 23t65 -23t24 -61zM302 840q0 -18 10.5 -29t27.5 -11q18 0 28.5 11t10.5 29q0 19 -10.5 29.5t-28.5 10.5q-17 0 -27.5 -10.5t-10.5 -29.5zM607 347q0 -74 -5.5 -126t-22.5 -99.5t-46.5 -76.5t-77.5 -45.5
t-116 -16.5t-116 16.5t-77.5 45.5t-46.5 76.5t-22.5 99.5t-5.5 126v361h68v-357q0 -162 41.5 -233t158.5 -71q116 0 157.5 71t41.5 233v357h69v-361z" />
    <glyph glyph-name="uring" unicode="&#x16f;" horiz-adv-x="582" 
d="M378 708q0 -38 -23.5 -60.5t-63.5 -22.5q-41 0 -64.5 22.5t-23.5 60.5q0 37 23.5 59.5t64.5 22.5q40 0 63.5 -22.5t23.5 -59.5zM252 708q0 -19 10.5 -29.5t28.5 -10.5q17 0 28 11t11 29t-11 28.5t-28 10.5q-18 0 -28.5 -10.5t-10.5 -28.5zM457 0l-13 104q-8 -16 -21 -32
t-36.5 -35.5t-61.5 -32t-84 -12.5q-91 0 -133.5 52t-42.5 174l1 317h65v-319q0 -82 30 -122t102 -40q38 0 70 13t53 34.5t33 39t20 35.5v359h66v-387l10 -148h-58z" />
    <glyph glyph-name="Uhungarumlaut" unicode="&#x170;" horiz-adv-x="678" 
d="M228 765l66 113h73l-78 -113h-61zM363 765l79 113h73l-91 -113h-61zM607 347q0 -74 -5.5 -126t-22.5 -99.5t-46.5 -76.5t-77.5 -45.5t-116 -16.5t-116 16.5t-77.5 45.5t-46.5 76.5t-22.5 99.5t-5.5 126v361h68v-357q0 -162 41.5 -233t158.5 -71q116 0 157.5 71t41.5 233
v357h69v-361z" />
    <glyph glyph-name="uhungarumlaut" unicode="&#x171;" horiz-adv-x="582" 
d="M177 634l66 136h72l-79 -136h-59zM312 634l78 136h72l-90 -136h-60zM457 0l-13 104q-8 -16 -21 -32t-36.5 -35.5t-61.5 -32t-84 -12.5q-91 0 -133.5 52t-42.5 174l1 317h65v-319q0 -82 30 -122t102 -40q38 0 70 13t53 34.5t33 39t20 35.5v359h66v-387l10 -148h-58z" />
    <glyph glyph-name="Uogonek" unicode="&#x172;" horiz-adv-x="678" 
d="M352 -88q0 37 33 74q-21 -3 -46 -3q-68 0 -116 16.5t-77.5 45.5t-46.5 76.5t-22.5 99.5t-5.5 126v361h68v-357q0 -162 41.5 -233t158.5 -71q116 0 157.5 71t41.5 233v357h69v-361q0 -141 -26.5 -222.5t-101.5 -115.5q-60 -38 -60 -83q0 -21 11.5 -31t29.5 -10
q10 0 22 3.5t18 6.5l7 3v-43q-23 -18 -72 -18q-41 0 -62 20.5t-21 54.5z" />
    <glyph glyph-name="uogonek" unicode="&#x173;" horiz-adv-x="582" 
d="M366 -109q0 23 11.5 44.5t28.5 36t29.5 23t20.5 12.5l-12 97q-8 -16 -21 -32t-36.5 -35.5t-61.5 -32t-84 -12.5q-91 0 -133.5 52t-42.5 174l1 317h65v-319q0 -82 30 -122t102 -40q38 0 70 13t53 34.5t33 39t20 35.5v359h66v-387l10 -148q-24 -10 -53 -36.5t-29 -58.5
q0 -21 11.5 -31t29.5 -10q10 0 22 3t18 7l7 3v-43q-23 -18 -72 -18q-41 0 -62 21t-21 54z" />
    <glyph glyph-name="Wcircumflex" unicode="&#x174;" horiz-adv-x="950" 
d="M617 764h-70l-70 70l-70 -70h-69l104 112h70zM476 633l-168 -633h-81l-212 708h77l177 -643l168 643h76l175 -642l173 642h74l-209 -708h-80z" />
    <glyph glyph-name="wcircumflex" unicode="&#x175;" horiz-adv-x="781" 
d="M531 634h-66l-73 87l-73 -87h-65l106 134h63zM389 464l-134 -464h-76l-171 535h71l137 -468l135 468h78l142 -469l131 469h71l-165 -535h-77z" />
    <glyph glyph-name="Ycircumflex" unicode="&#x176;" horiz-adv-x="592" 
d="M435 764h-70l-70 70l-70 -70h-69l104 112h70zM266 0v235l-254 473h78l209 -413l201 413h80l-247 -473v-235h-67z" />
    <glyph glyph-name="ycircumflex" unicode="&#x177;" horiz-adv-x="502" 
d="M391 634h-66l-73 87l-73 -87h-65l106 134h63zM163 -223l76 223h-29l-201 535h74l173 -486l167 486h70l-268 -758h-62z" />
    <glyph glyph-name="Ydieresis" unicode="&#x178;" horiz-adv-x="592" 
d="M184 764v122h67v-122h-67zM339 764v122h66v-122h-66zM266 0v235l-254 473h78l209 -413l201 413h80l-247 -473v-235h-67z" />
    <glyph glyph-name="Zacute" unicode="&#x179;" horiz-adv-x="536" 
d="M239 764l73 114h81l-85 -114h-69zM19 4v58l410 584h-391v58h472v-58l-412 -584h416v-58h-495z" />
    <glyph glyph-name="zacute" unicode="&#x17a;" horiz-adv-x="429" 
d="M190 634l73 136h71l-84 -136h-60zM18 4v60l315 408l-305 -1v60h380v-59l-316 -408h316v-60h-390z" />
    <glyph glyph-name="Zdotaccent" unicode="&#x17b;" horiz-adv-x="536" 
d="M242 764v122h67v-122h-67zM19 4v58l410 584h-391v58h472v-58l-412 -584h416v-58h-495z" />
    <glyph glyph-name="zdotaccent" unicode="&#x17c;" horiz-adv-x="429" 
d="M188 642v113h67v-113h-67zM18 4v60l315 408l-305 -1v60h380v-59l-316 -408h316v-60h-390z" />
    <glyph glyph-name="Zcaron" unicode="&#x17d;" horiz-adv-x="536" 
d="M415 876l-105 -112h-70l-104 112h68l70 -70l71 70h70zM19 4v58l410 584h-391v58h472v-58l-412 -584h416v-58h-495z" />
    <glyph glyph-name="zcaron" unicode="&#x17e;" horiz-adv-x="429" 
d="M360 768l-108 -134h-63l-106 134h64l73 -86l73 86h67zM18 4v60l315 408l-305 -1v60h380v-59l-316 -408h316v-60h-390z" />
    <glyph glyph-name="uni018F" unicode="&#x18f;" horiz-adv-x="689" 
d="M636 353q0 -186 -66 -278t-225 -92q-160 0 -226 93t-66 283h514q-1 156 -52 230.5t-170 74.5q-178 0 -212 -172h-70q19 117 86.5 175t195.5 58q159 0 225 -92.5t66 -279.5zM345 47q108 0 160 60.5t60 188.5h-441q8 -128 60 -188.5t161 -60.5z" />
    <glyph glyph-name="uni019D" unicode="&#x19d;" horiz-adv-x="712" 
d="M147 618l-1 -618q0 -60 -6.5 -98t-25.5 -67.5t-55 -42t-93 -12.5h-49v54h49q70 0 93.5 35t24.5 131l4 708h71l407 -613l-3 613h65v-708h-71z" />
    <glyph glyph-name="Gcaron" unicode="&#x1e6;" horiz-adv-x="656" 
d="M476 878l-105 -112h-70l-104 112h68l70 -70l71 70h70zM594 80q0 -4 -9 -14.5t-29.5 -24.5t-49 -27t-73 -22t-94.5 -9q-155 0 -220.5 91.5t-65.5 277.5q0 187 65.5 280t220.5 93q127 0 192 -64.5t65 -170.5h-66q-1 75 -51.5 123.5t-139.5 48.5q-116 0 -166.5 -75.5
t-50.5 -234.5q0 -160 51 -234.5t168 -74.5q55 0 101.5 14.5t67.5 30.5t21 25v168h-154v62h217v-263z" />
    <glyph glyph-name="gcaron" unicode="&#x1e7;" horiz-adv-x="585" 
d="M428 768l-108 -134h-63l-106 134h64l73 -86l73 86h67zM508 -1q0 -30 -1 -49.5t-5.5 -47.5t-13 -45.5t-25 -38t-40 -32t-59.5 -19t-82 -7.5q-62 0 -106.5 19.5t-63.5 47t-29 55t-10 46.5v20l70 1q0 -89 70 -120q29 -13 69 -13q44 0 75 10.5t47.5 25.5t25.5 42t11 49t2 58
v68q-54 -78 -181 -78q-209 0 -209 274q0 279 207 279q52 0 96 -19.5t62 -37t31 -35.5l11 83h58l-10 -135v-401zM274 52q119 0 169 94v244q-21 35 -63 64.5t-106 29.5q-155 0 -155 -219q0 -213 155 -213z" />
    <glyph glyph-name="uni01EA" unicode="&#x1ea;" horiz-adv-x="690" 
d="M365 -85q0 36 31 71q-24 -3 -51 -3q-159 0 -225.5 92t-66.5 278q0 187 66.5 279.5t225.5 92.5q158 0 225 -92.5t67 -279.5q0 -135 -34 -219.5t-110 -121.5q-61 -39 -61 -83q0 -21 11.5 -31t29.5 -10q10 0 22 3t19 7l6 3v-43q-23 -18 -72 -18q-42 0 -62.5 21t-20.5 54z
M122 353q0 -159 51.5 -233t171.5 -74t171.5 74t51.5 233q0 160 -51.5 234.5t-171.5 74.5t-171.5 -74.5t-51.5 -234.5z" />
    <glyph glyph-name="uni01EB" unicode="&#x1eb;" horiz-adv-x="576" 
d="M269 -94q0 44 44 84q-8 -1 -25 -1q-131 0 -183 69.5t-52 207.5q0 139 52.5 209.5t182.5 70.5q130 1 182.5 -70t52.5 -210q0 -196 -107 -251q-80 -43 -80 -95q0 -21 11.5 -31t29.5 -10q10 0 22 3.5t19 6.5l6 3v-43q-23 -18 -72 -18q-42 0 -62.5 20.5t-20.5 54.5zM121 266
q0 -115 37 -167.5t130 -52.5t130 52.5t37 167.5t-37 169t-130 54t-130 -54t-37 -169z" />
    <glyph glyph-name="Aringacute" unicode="&#x1fa;" horiz-adv-x="648" 
d="M288 971l73 114h81l-85 -114h-69zM413 840q0 -38 -24 -61t-65 -23t-64.5 23t-23.5 61t23.5 61t64.5 23t65 -23t24 -61zM286 840q0 -18 10.5 -29t27.5 -11q18 0 28.5 11t10.5 29q0 19 -10.5 29.5t-28.5 10.5q-17 0 -27.5 -10.5t-10.5 -29.5zM12 0l276 708h72l276 -708h-74
l-69 184h-340l-68 -184h-73zM176 248h294l-147 396z" />
    <glyph glyph-name="aringacute" unicode="&#x1fb;" horiz-adv-x="572" 
d="M261 830l73 136h71l-84 -136h-60zM372 708q0 -38 -23.5 -60.5t-63.5 -22.5q-41 0 -64.5 22.5t-23.5 60.5q0 37 23.5 59.5t64.5 22.5q40 0 63.5 -22.5t23.5 -59.5zM246 708q0 -19 10.5 -29.5t28.5 -10.5q17 0 28 11t11 29t-11 28.5t-28 10.5q-18 0 -28.5 -10.5
t-10.5 -28.5zM444 1l-10 73q-65 -85 -197 -85q-185 0 -185 164q0 93 57.5 132t168.5 39q89 0 150 -9q-1 52 -5.5 80.5t-19 52t-42.5 32t-76 8.5q-151 0 -151 -115h-61q0 171 209 171q32 0 58 -2.5t46 -10t35.5 -14.5t27 -21.5l19.5 -24.5t13 -31t7.5 -33.5t4 -39.5
t1.5 -41.5v-45.5v-15v-130l11 -134h-61zM249 47q79 0 129 38t50 80v94q-67 8 -135 8q-88 0 -130.5 -25t-42.5 -86q0 -109 129 -109z" />
    <glyph glyph-name="AEacute" unicode="&#x1fc;" horiz-adv-x="911" 
d="M421 764l73 114h81l-85 -114h-69zM12 0l384 708h483v-63h-378v-246h328v-61h-328v-275h382v-63h-450v192h-243l-102 -192h-76zM433 251v396l-211 -396h211z" />
    <glyph glyph-name="aeacute" unicode="&#x1fd;" horiz-adv-x="924" 
d="M455 634l73 136h71l-84 -136h-60zM871 159q0 -19 -5 -38.5t-20 -44t-38.5 -43t-65.5 -31.5t-97 -13q-146 0 -200 99q-62 -99 -208 -99q-185 0 -185 164q0 93 57 129t169 36h135q3 38 10 65q-8 56 -39 80.5t-99 24.5q-151 0 -151 -115h-61q0 171 209 171q137 0 176 -78
q56 80 187 80q124 0 177 -69.5t53 -221.5h-396q2 -108 40 -158t125 -50q84 0 121.5 36t38.5 76h67zM644 489q-79 0 -117.5 -43t-45.5 -132h324q-8 93 -47 134t-114 41zM422 154q-11 50 -11 107h-118q-90 0 -131.5 -22.5t-41.5 -82.5q0 -109 129 -109q74 0 120 33t53 74z" />
    <glyph glyph-name="Oslashacute" unicode="&#x1fe;" horiz-adv-x="690" 
d="M303 764l73 114h81l-85 -114h-69zM54 -7l60 89q-61 87 -61 271q0 187 66.5 279.5t225.5 92.5q110 0 177 -47l28 41h80l-60 -87q67 -89 67 -279q0 -186 -67 -278t-225 -92q-116 0 -183 50l-27 -40h-81zM122 353q0 -135 36 -207l325 476q-50 40 -138 40
q-120 0 -171.5 -74.5t-51.5 -234.5zM568 353q0 141 -41 216l-326 -479q50 -44 144 -44q120 0 171.5 74t51.5 233z" />
    <glyph glyph-name="oslashacute" unicode="&#x1ff;" horiz-adv-x="576" 
d="M257 627l73 136h71l-84 -136h-60zM49 -8l52 72q-48 64 -48 202q0 139 52.5 209.5t182.5 70.5q85 0 138 -32l19 27h80l-51 -70q49 -67 49 -205t-52.5 -207.5t-182.5 -69.5q-85 0 -139 31l-20 -28h-80zM121 266q0 -91 23 -143l245 340q-38 26 -101 26q-93 0 -130 -54
t-37 -169zM455 266q0 94 -24 145l-245 -340q37 -25 102 -25q93 0 130 52.5t37 167.5z" />
    <glyph glyph-name="Scommaaccent" unicode="&#x218;" horiz-adv-x="618" 
d="M572 178q0 -98 -67 -147.5t-194 -47.5q-262 2 -262 231h67q0 -169 197 -170q191 -3 191 132q0 43 -24.5 72.5t-64 45t-87.5 27.5t-95.5 26t-87 34.5t-64 59t-24.5 93.5q0 90 62.5 141t186.5 50q137 -1 193.5 -55t56.5 -154h-67q0 30 -6.5 52.5t-24 45.5t-56.5 36t-96 14
q-97 1 -139.5 -35.5t-42.5 -92.5q0 -42 24.5 -71t64 -44.5t87.5 -27.5t96 -26.5t87.5 -35t64 -59.5t24.5 -94zM263 -235q16 37 29 91q5 22 8.5 44t3.5 34l1 11h61q-4 -46 -18 -93q-8 -25 -17 -46.5t-15 -31.5l-5 -9h-48z" />
    <glyph glyph-name="scommaaccent" unicode="&#x219;" horiz-adv-x="517" 
d="M478 140q0 -154 -220 -151q-105 1 -161.5 47.5t-56.5 133.5h66q0 -58 39 -89.5t113 -32.5q152 -3 152 96q1 41 -35.5 63.5t-89.5 32.5t-105.5 22.5t-90 46t-38.5 90.5q-1 70 52 109t158 38q102 -1 152.5 -44.5t50.5 -125.5h-66q0 53 -31 82.5t-105 30.5q-144 3 -144 -94
q0 -32 26.5 -52.5t66.5 -28t87 -19t87 -25t66.5 -47t26.5 -83.5zM212 -220q16 37 29 91q5 22 8.5 44t4.5 33v12h61q-4 -46 -18 -93q-8 -25 -17 -46.5t-14 -30.5l-6 -10h-48z" />
    <glyph glyph-name="uni021A" unicode="&#x21a;" horiz-adv-x="564" 
d="M244 0l2 645h-229v63h530v-63h-232l-3 -645h-68zM203 -222q16 37 29 91q5 22 8.5 44.5t3.5 34.5l1 11h61q-4 -46 -19 -94q-7 -25 -16.5 -46.5t-14.5 -30.5l-6 -10h-47z" />
    <glyph glyph-name="uni021B" unicode="&#x21b;" horiz-adv-x="316" 
d="M301 -2h-44q-45 0 -76 11t-48.5 27.5t-26.5 45.5t-11.5 55.5t-2.5 66.5v272h-68v59h68v158l66 13v-171h140v-59h-140v-270q0 -76 19.5 -111t83.5 -35h40v-62zM147 -209q16 37 29 91q5 22 8.5 44t3.5 34l1 11h61q-4 -46 -18 -93q-8 -25 -17 -46.5t-15 -31.5l-5 -9h-48z
" />
    <glyph glyph-name="uni0232" unicode="&#x232;" horiz-adv-x="592" 
d="M178 841h234v-54h-234v54zM266 0v235l-254 473h78l209 -413l201 413h80l-247 -473v-235h-67z" />
    <glyph glyph-name="uni0233" unicode="&#x233;" horiz-adv-x="502" 
d="M135 712h234v-50h-234v50zM163 -223l76 223h-29l-201 535h74l173 -486l167 486h70l-268 -758h-62z" />
    <glyph glyph-name="uni0237" unicode="&#x237;" horiz-adv-x="236" 
d="M155 43q0 -34 -0.5 -52.5t-3 -44.5t-7.5 -39.5t-13.5 -30.5t-22 -25.5t-32.5 -17t-45 -11.5t-60 -3v63q25 0 43.5 3.5t31.5 8t21 16.5t12.5 21t6.5 30.5t2.5 36t0.5 45.5v492h66v-492z" />
    <glyph glyph-name="uni0259" unicode="&#x259;" horiz-adv-x="570" 
d="M517 268q0 -137 -54 -208t-180 -71q-123 0 -176.5 68t-53.5 217h396q-1 111 -39 162t-126 51q-84 0 -121.5 -36t-38.5 -76h-67q0 19 5 39t20 44.5t38.5 43t66 31.5t96.5 13q126 0 180 -71t54 -207zM284 46q78 0 116.5 41.5t46.5 128.5h-325q9 -90 47.5 -130t114.5 -40z
" />
    <glyph glyph-name="uni0272" unicode="&#x272;" horiz-adv-x="591" 
d="M155 55q0 -34 -0.5 -52.5t-3 -44.5t-7.5 -39.5t-13.5 -30.5t-22 -25.5t-32.5 -17t-45 -11.5t-60 -3v59q25 0 43.5 3.5t31.5 8t21 16.5t12.5 21.5t6.5 31.5t2.5 36.5t0.5 47.5v341l-10 139h58l11 -91q62 99 200 99q91 0 133.5 -52t42.5 -175v-316h-66v318
q0 84 -29.5 123.5t-102.5 39.5q-111 0 -171 -105v-321z" />
    <glyph glyph-name="circumflex" unicode="&#x2c6;" horiz-adv-x="394" 
d="M342 634h-66l-73 87l-73 -87h-65l106 134h63z" />
    <glyph glyph-name="caron" unicode="&#x2c7;" horiz-adv-x="395" 
d="M343 768l-108 -134h-63l-106 134h64l73 -86l73 86h67z" />
    <glyph glyph-name="breve" unicode="&#x2d8;" horiz-adv-x="385" 
d="M318 744q0 -38 -34 -74.5t-98 -36.5t-98 36.5t-34 74.5h58q0 -21 21.5 -43t52.5 -22t53 22t22 43h57z" />
    <glyph glyph-name="dotaccent" unicode="&#x2d9;" horiz-adv-x="236" 
d="M57 642v113h67v-113h-67z" />
    <glyph glyph-name="ring" unicode="&#x2da;" horiz-adv-x="337" 
d="M238 708q0 -38 -23.5 -60.5t-63.5 -22.5q-41 0 -64.5 22.5t-23.5 60.5q0 37 23.5 59.5t64.5 22.5q40 0 63.5 -22.5t23.5 -59.5zM112 708q0 -19 10.5 -29.5t28.5 -10.5q17 0 28 11t11 29t-11 28.5t-28 10.5q-18 0 -28.5 -10.5t-10.5 -28.5z" />
    <glyph glyph-name="ogonek" unicode="&#x2db;" horiz-adv-x="328" 
d="M28 -108q0 32 23 61.5t47 42.5l23 14l59 -7q-10 -5 -24 -13t-37.5 -33.5t-23.5 -50.5q0 -21 11.5 -31t29.5 -10q10 0 22 3.5t18 6.5l7 3v-43q-23 -18 -72 -18q-41 0 -62 20.5t-21 54.5z" />
    <glyph glyph-name="tilde" unicode="&#x2dc;" horiz-adv-x="397" 
d="M337 734q0 -100 -79 -100q-34 0 -62.5 24.5t-46.5 24.5q-37 0 -37 -48h-48q0 100 79 100q33 0 62 -24t47 -24q37 0 37 47h48z" />
    <glyph glyph-name="hungarumlaut" unicode="&#x2dd;" horiz-adv-x="374" 
d="M61 634l66 136h72l-79 -136h-59zM196 634l78 136h72l-90 -136h-60z" />
    <glyph glyph-name="gravecomb" unicode="&#x300;" 
d="M-54 634h-60l-85 136h72z" />
    <glyph glyph-name="acutecomb" unicode="&#x301;" 
d="M-203 634l73 136h71l-84 -136h-60z" />
    <glyph glyph-name="uni0302" unicode="&#x302;" 
d="M-66 634h-66l-73 87l-73 -87h-65l106 134h63z" />
    <glyph glyph-name="tildecomb" unicode="&#x303;" 
d="M-64 734q0 -100 -79 -100q-34 0 -62.5 24.5t-46.5 24.5q-37 0 -37 -48h-48q0 100 79 100q34 0 62 -24t47 -24q37 0 37 47h48z" />
    <glyph glyph-name="uni0304" unicode="&#x304;" 
d="M-294 712h234v-50h-234v50z" />
    <glyph glyph-name="uni0306" unicode="&#x306;" 
d="M-54 744q0 -38 -34 -74.5t-98 -36.5t-98 36.5t-34 74.5h58q0 -21 21.5 -43t52.5 -22t53 22t22 43h57z" />
    <glyph glyph-name="uni0307" unicode="&#x307;" 
d="M-123 642v113h67v-113h-67z" />
    <glyph glyph-name="uni0308" unicode="&#x308;" 
d="M-275 634v121h63v-121h-63zM-123 634v121h63v-121h-63z" />
    <glyph glyph-name="uni030A" unicode="&#x30a;" 
d="M-61 708q0 -38 -23.5 -60.5t-63.5 -22.5q-41 0 -64.5 22.5t-23.5 60.5q0 37 23.5 59.5t64.5 22.5q40 0 63.5 -22.5t23.5 -59.5zM-187 708q0 -19 10.5 -29.5t28.5 -10.5t28.5 11t10.5 29t-11 28.5t-28 10.5q-18 0 -28.5 -10.5t-10.5 -28.5z" />
    <glyph glyph-name="uni030B" unicode="&#x30b;" 
d="M-341 634l66 136h72l-79 -136h-59zM-206 634l78 136h72l-90 -136h-60z" />
    <glyph glyph-name="uni030C" unicode="&#x30c;" 
d="M-66 768l-108 -134h-63l-106 134h64l73 -86l73 86h67z" />
    <glyph glyph-name="uni0312" unicode="&#x312;" 
d="M-55 785q-20 -42 -35 -109q-7 -29 -10 -54.5t-3 -35.5v-11h-62q1 41 18 105q8 31 19.5 57t18.5 37l7 11h47z" />
    <glyph glyph-name="dotbelowcomb" unicode="&#x323;" 
d="M-123 -178v106h66v-106h-66z" />
    <glyph glyph-name="uni0326" unicode="&#x326;" 
d="M-186 -219q16 37 29 91q5 22 8.5 44t4.5 34v11h61q-4 -46 -18 -93q-8 -25 -17 -46.5t-14 -31.5l-6 -9h-48z" />
    <glyph glyph-name="uni0327" unicode="&#x327;" 
d="M-50 -131q0 -47 -28.5 -65.5t-92.5 -18.5q-16 0 -31.5 1.5t-22.5 3.5l-7 2v43q0 -1 5.5 -2.5t16.5 -3t24 -1.5q39 0 55 9.5t16 36.5q0 46 -84 46h-6l37 83h62l-27 -59q83 -7 83 -75z" />
    <glyph glyph-name="uni0328" unicode="&#x328;" 
d="M-259 -108q0 32 23.5 61.5t46.5 42.5l23 14l59 -7q-10 -5 -24 -13t-37.5 -33.5t-23.5 -50.5q0 -21 11.5 -31t29.5 -10q10 0 22 3.5t19 6.5l6 3v-43q-23 -18 -72 -18q-42 0 -62.5 20.5t-20.5 54.5z" />
    <glyph glyph-name="uni0335" unicode="&#x335;" 
d="M-317 305v51h269v-51h-269z" />
    <glyph glyph-name="uni0336" unicode="&#x336;" 
d="M-706 302v57h632v-57h-632z" />
    <glyph glyph-name="uni0337" unicode="&#x337;" 
d="M-299 217l-24 44l248 150l24 -45z" />
    <glyph glyph-name="uni0338" unicode="&#x338;" 
d="M-437 104l396 549h80l-396 -549h-80z" />
    <glyph glyph-name="pi" unicode="&#x3c0;" horiz-adv-x="631" 
d="M480 484v-308q0 -60 14 -91t59 -31h15v-54h-17q-42 0 -68.5 12.5t-38.5 39t-15.5 53.5t-3.5 71v308h-233v-484h-55v484h-87v58h517v-58h-87z" />
    <glyph glyph-name="Wgrave" unicode="&#x1e80;" horiz-adv-x="950" 
d="M513 765h-69l-85 113h81zM476 633l-168 -633h-81l-212 708h77l177 -643l168 643h76l175 -642l173 642h74l-209 -708h-80z" />
    <glyph glyph-name="wgrave" unicode="&#x1e81;" horiz-adv-x="781" 
d="M421 634h-60l-85 136h72zM389 464l-134 -464h-76l-171 535h71l137 -468l135 468h78l142 -469l131 469h71l-165 -535h-77z" />
    <glyph glyph-name="Wacute" unicode="&#x1e82;" horiz-adv-x="950" 
d="M441 764l73 114h81l-85 -114h-69zM476 633l-168 -633h-81l-212 708h77l177 -643l168 643h76l175 -642l173 642h74l-209 -708h-80z" />
    <glyph glyph-name="wacute" unicode="&#x1e83;" horiz-adv-x="781" 
d="M361 634l73 136h71l-84 -136h-60zM389 464l-134 -464h-76l-171 535h71l137 -468l135 468h78l142 -469l131 469h71l-165 -535h-77z" />
    <glyph glyph-name="Wdieresis" unicode="&#x1e84;" horiz-adv-x="950" 
d="M366 764v122h67v-122h-67zM521 764v122h66v-122h-66zM476 633l-168 -633h-81l-212 708h77l177 -643l168 643h76l175 -642l173 642h74l-209 -708h-80z" />
    <glyph glyph-name="wdieresis" unicode="&#x1e85;" horiz-adv-x="781" 
d="M284 634v121h63v-121h-63zM436 634v121h63v-121h-63zM389 464l-134 -464h-76l-171 535h71l137 -468l135 468h78l142 -469l131 469h71l-165 -535h-77z" />
    <glyph glyph-name="uni1E9E" unicode="&#x1e9e;" horiz-adv-x="663" 
d="M629 226q0 -103 -59 -164.5t-187 -61.5h-157v58h156q88 0 132.5 45t44.5 131q0 81 -49.5 124.5t-133.5 43.5q-19 0 -41 -2.5t-34 -5.5l-12 -2v48l233 209h-228q-77 0 -110.5 -40.5t-33.5 -116.5v-492h-66v497q0 100 45 155t161 56h315v-59l-218 -199q120 -4 181 -61.5
t61 -162.5z" />
    <glyph glyph-name="uni1EA0" unicode="&#x1ea0;" horiz-adv-x="648" 
d="M12 0l276 708h72l276 -708h-74l-69 184h-340l-68 -184h-73zM176 248h294l-147 396zM290 -178v106h66v-106h-66z" />
    <glyph glyph-name="uni1EA1" unicode="&#x1ea1;" horiz-adv-x="572" 
d="M444 1l-10 73q-65 -85 -197 -85q-185 0 -185 164q0 93 57.5 132t168.5 39q89 0 150 -9q-1 52 -5.5 80.5t-19 52t-42.5 32t-76 8.5q-151 0 -151 -115h-61q0 171 209 171q32 0 58 -2.5t46 -10t35.5 -14.5t27 -21.5l19.5 -24.5t13 -31t7.5 -33.5t4 -39.5t1.5 -41.5v-45.5
v-15v-130l11 -134h-61zM249 47q79 0 129 38t50 80v94q-67 8 -135 8q-88 0 -130.5 -25t-42.5 -86q0 -109 129 -109zM247 -182v106h66v-106h-66z" />
    <glyph glyph-name="uni1EB8" unicode="&#x1eb8;" horiz-adv-x="562" 
d="M84 0v708h445v-63h-377v-246h327v-61h-327v-275h382v-63h-450zM275 -178v106h66v-106h-66z" />
    <glyph glyph-name="uni1EB9" unicode="&#x1eb9;" horiz-adv-x="565" 
d="M512 159q0 -25 -9 -50.5t-31 -54t-70.5 -47t-115.5 -18.5q-126 0 -179.5 70.5t-53.5 206.5q0 137 53.5 208.5t179.5 71.5q124 0 177 -69.5t53 -221.5h-395q2 -108 40 -158t125 -50q58 0 96 21t50.5 44.5t12.5 46.5h67zM286 489q-79 0 -118 -43t-46 -132h324
q-8 93 -46.5 134t-113.5 41zM256 -181v106h66v-106h-66z" />
    <glyph glyph-name="uni1EBC" unicode="&#x1ebc;" horiz-adv-x="562" 
d="M442 864q0 -100 -80 -100q-29 0 -45.5 11.5t-29 23t-31.5 11.5q-39 0 -39 -46h-48q0 99 80 99q35 0 60 -23t46 -23q38 0 38 47h49zM84 0v708h445v-63h-377v-246h327v-61h-327v-275h382v-63h-450z" />
    <glyph glyph-name="uni1EBD" unicode="&#x1ebd;" horiz-adv-x="565" 
d="M424 734q0 -100 -79 -100q-34 0 -62.5 24.5t-46.5 24.5q-37 0 -37 -48h-48q0 100 79 100q34 0 62 -24t47 -24q37 0 37 47h48zM512 159q0 -25 -9 -50.5t-31 -54t-70.5 -47t-115.5 -18.5q-126 0 -179.5 70.5t-53.5 206.5q0 137 53.5 208.5t179.5 71.5q124 0 177 -69.5
t53 -221.5h-395q2 -108 40 -158t125 -50q58 0 96 21t50.5 44.5t12.5 46.5h67zM286 489q-79 0 -118 -43t-46 -132h324q-8 93 -46.5 134t-113.5 41z" />
    <glyph glyph-name="uni1ECA" unicode="&#x1eca;" horiz-adv-x="236" 
d="M84 0v708h68v-708h-68zM85 -180v106h66v-106h-66z" />
    <glyph glyph-name="uni1ECB" unicode="&#x1ecb;" horiz-adv-x="227" 
d="M80 642v113h67v-113h-67zM80 0v535h66v-535h-66zM80 -178v106h66v-106h-66z" />
    <glyph glyph-name="uni1ECC" unicode="&#x1ecc;" horiz-adv-x="690" 
d="M637 353q0 -186 -67 -278t-225 -92q-159 0 -225.5 92t-66.5 278q0 187 66.5 279.5t225.5 92.5q158 0 225 -92.5t67 -279.5zM122 353q0 -159 51.5 -233t171.5 -74t171.5 74t51.5 233q0 160 -51.5 234.5t-171.5 74.5t-171.5 -74.5t-51.5 -234.5zM312 -182v106h66v-106h-66z
" />
    <glyph glyph-name="uni1ECD" unicode="&#x1ecd;" horiz-adv-x="576" 
d="M523 266q0 -138 -52.5 -207.5t-182.5 -69.5q-131 0 -183 69.5t-52 207.5q0 139 52.5 209.5t182.5 70.5q130 1 182.5 -70t52.5 -210zM121 266q0 -115 37 -167.5t130 -52.5t130 52.5t37 167.5t-37 169t-130 54t-130 -54t-37 -169zM255 -182v106h66v-106h-66z" />
    <glyph glyph-name="uni1EE4" unicode="&#x1ee4;" horiz-adv-x="678" 
d="M607 347q0 -74 -5.5 -126t-22.5 -99.5t-46.5 -76.5t-77.5 -45.5t-116 -16.5t-116 16.5t-77.5 45.5t-46.5 76.5t-22.5 99.5t-5.5 126v361h68v-357q0 -162 41.5 -233t158.5 -71q116 0 157.5 71t41.5 233v357h69v-361zM307 -182v106h66v-106h-66z" />
    <glyph glyph-name="uni1EE5" unicode="&#x1ee5;" horiz-adv-x="582" 
d="M457 0l-13 104q-8 -16 -21 -32t-36.5 -35.5t-61.5 -32t-84 -12.5q-91 0 -133.5 52t-42.5 174l1 317h65v-319q0 -82 30 -122t102 -40q38 0 70 13t53 34.5t33 39t20 35.5v359h66v-387l10 -148h-58zM257 -182v106h66v-106h-66z" />
    <glyph glyph-name="Ygrave" unicode="&#x1ef2;" horiz-adv-x="592" 
d="M331 765h-69l-85 113h81zM266 0v235l-254 473h78l209 -413l201 413h80l-247 -473v-235h-67z" />
    <glyph glyph-name="ygrave" unicode="&#x1ef3;" horiz-adv-x="502" 
d="M281 634h-60l-85 136h72zM163 -223l76 223h-29l-201 535h74l173 -486l167 486h70l-268 -758h-62z" />
    <glyph glyph-name="uni1EF8" unicode="&#x1ef8;" horiz-adv-x="592" 
d="M432 864q0 -100 -80 -100q-29 0 -45.5 11.5t-29 23t-31.5 11.5q-39 0 -39 -46h-48q0 99 80 99q35 0 60 -23t46 -23q38 0 38 47h49zM266 0v235l-254 473h78l209 -413l201 413h80l-247 -473v-235h-67z" />
    <glyph glyph-name="uni1EF9" unicode="&#x1ef9;" horiz-adv-x="502" 
d="M389 734q0 -100 -79 -100q-34 0 -62.5 24.5t-46.5 24.5q-37 0 -37 -48h-48q0 100 79 100q33 0 62 -24t47 -24q37 0 37 47h48zM163 -223l76 223h-29l-201 535h74l173 -486l167 486h70l-268 -758h-62z" />
    <glyph glyph-name="uni2009" unicode="&#x2009;" horiz-adv-x="74" 
 />
    <glyph glyph-name="endash" unicode="&#x2013;" horiz-adv-x="577" 
d="M63 294v52h451v-52h-451z" />
    <glyph glyph-name="emdash" unicode="&#x2014;" horiz-adv-x="919" 
d="M80 294v52h758v-52h-758z" />
    <glyph glyph-name="uni2016" unicode="&#x2016;" horiz-adv-x="385" 
d="M83 -180v1000h50v-1000h-50zM252 -180v1000h51v-1000h-51z" />
    <glyph glyph-name="quoteleft" unicode="&#x2018;" horiz-adv-x="177" 
d="M50 540q-1 37 17 107q8 32 20 60.5t19 40.5l8 12h50q-22 -47 -37 -118q-7 -32 -10.5 -57.5t-3.5 -34.5v-10h-63z" />
    <glyph glyph-name="quoteright" unicode="&#x2019;" horiz-adv-x="177" 
d="M30 540q22 47 37 117q7 32 10 57.5t3 35.5v10h63q1 -37 -17 -107q-8 -32 -20 -60.5t-20 -40.5l-7 -12h-49z" />
    <glyph glyph-name="quotesinglbase" unicode="&#x201a;" horiz-adv-x="209" 
d="M48 -98q22 47 37 118q7 32 10 57.5t3 35.5v10h63q1 -37 -17 -107q-8 -32 -20 -60.5t-20 -41.5l-7 -12h-49z" />
    <glyph glyph-name="quotedblleft" unicode="&#x201c;" horiz-adv-x="300" 
d="M50 540q-1 37 17 107q8 32 20 60.5t19 40.5l8 12h50q-22 -47 -37 -118q-7 -32 -10.5 -57.5t-3.5 -34.5v-10h-63zM173 540q0 37 18 107q8 32 20 60.5t19 40.5l8 12h49q-22 -47 -37 -118q-7 -32 -10 -57.5t-3 -34.5v-10h-64z" />
    <glyph glyph-name="quotedblright" unicode="&#x201d;" horiz-adv-x="300" 
d="M30 540q22 47 37 117q7 32 10 57.5t3 35.5v10h64q0 -37 -18 -107q-8 -32 -20 -60.5t-20 -40.5l-7 -12h-49zM153 540q23 47 38 117q7 32 10 57.5t3 35.5v10h63q1 -37 -17 -107q-8 -32 -20 -60.5t-20 -40.5l-7 -12h-50z" />
    <glyph glyph-name="quotedblbase" unicode="&#x201e;" horiz-adv-x="313" 
d="M30 -115q22 47 37 118q7 32 10 57.5t3 35.5v9h64q0 -36 -18 -107q-8 -32 -20 -60.5t-20 -40.5l-7 -12h-49zM150 -115q22 47 37 118q7 32 10 57.5t3 35.5v9h63q1 -36 -17 -107q-8 -32 -20 -60.5t-20 -40.5l-7 -12h-49z" />
    <glyph glyph-name="dagger" unicode="&#x2020;" horiz-adv-x="538" 
d="M78 566h166v202h50v-202h166v-45h-166v-521h-50v521h-166v45z" />
    <glyph glyph-name="daggerdbl" unicode="&#x2021;" horiz-adv-x="553" 
d="M78 566h166v202h50v-202h166v-45h-166v-274h166v-44h-166v-203h-50v203h-166v44h166v274h-166v45z" />
    <glyph glyph-name="bullet" unicode="&#x2022;" horiz-adv-x="439" 
d="M173 234v125h93v-125h-93z" />
    <glyph glyph-name="ellipsis" unicode="&#x2026;" horiz-adv-x="555" 
d="M91 0v125h69v-125h-69zM243 0v125h69v-125h-69zM395 0v125h69v-125h-69z" />
    <glyph glyph-name="perthousand" unicode="&#x2030;" horiz-adv-x="1091" 
d="M347 540q0 -83 -35.5 -127t-119.5 -44q-156 0 -156 171q0 175 156 175q84 0 119.5 -45t35.5 -130zM107 0l460 702h66l-460 -702h-66zM88 540q0 -63 24.5 -94t79.5 -31t79 31t24 94q0 64 -24 96.5t-79 32.5q-104 0 -104 -129zM702 158q0 -83 -36 -127t-119 -44
q-156 0 -156 171q0 175 156 175q83 0 119 -45.5t36 -129.5zM1049 158q0 -83 -36 -127t-119 -44q-157 0 -157 171q0 175 157 175q83 0 119 -45.5t36 -129.5zM442 158q0 -125 105 -125q55 0 79 31t24 94q0 129 -103 129q-105 0 -105 -129zM789 158q0 -125 105 -125q55 0 79 31
t24 94q0 129 -103 129q-105 0 -105 -129z" />
    <glyph glyph-name="guilsinglleft" unicode="&#x2039;" horiz-adv-x="344" 
d="M193 107l-117 148v18l117 156h77l-129 -166l129 -156h-77z" />
    <glyph glyph-name="guilsinglright" unicode="&#x203a;" horiz-adv-x="344" 
d="M151 107h-76l128 156l-128 166h76l117 -156v-18z" />
    <glyph glyph-name="fraction" unicode="&#x2044;" horiz-adv-x="261" 
d="M-163 -40l529 827h63l-529 -827h-63z" />
    <glyph glyph-name="uni2070" unicode="&#x2070;" horiz-adv-x="488" 
d="M434 583q0 -140 -43.5 -200.5t-146.5 -60.5q-104 0 -147.5 60.5t-43.5 200.5q0 139 44 200t147 61t146.5 -61t43.5 -200zM110 583q0 -116 31.5 -163t102.5 -47t102 47t31 163t-31 163t-102 47t-102.5 -47t-31.5 -163z" />
    <glyph glyph-name="uni2074" unicode="&#x2074;" horiz-adv-x="426" 
d="M286 330v110h-260v50l230 347h85v-347h60v-50h-60v-110h-55zM286 490v307l-195 -307h195z" />
    <glyph glyph-name="uni2075" unicode="&#x2075;" horiz-adv-x="446" 
d="M151 782l-27 -152q40 33 116 33q81 0 123 -47t42 -124q0 -79 -43.5 -125t-135.5 -46t-137 41t-45 100h58q0 -38 32 -65t92 -27q122 0 122 122q0 59 -32.5 91t-89.5 32q-38 0 -66 -12.5t-36.5 -22t-10.5 -15.5l-53 1l43 265h275v-50z" />
    <glyph glyph-name="uni2076" unicode="&#x2076;" horiz-adv-x="473" 
d="M423 492q0 -171 -184 -171q-100 0 -143 56t-43 177q0 159 43 225t144 66q86 0 125.5 -43t39.5 -98h-56q0 36 -27 63.5t-82 27.5q-61 0 -92 -41.5t-36 -147.5q46 62 144 62q86 0 126.5 -48t40.5 -128zM245 618q-95 0 -134 -83q3 -88 34 -126t95 -38q124 0 124 123
q0 124 -119 124z" />
    <glyph glyph-name="uni2077" unicode="&#x2077;" horiz-adv-x="362" 
d="M100 330q0 70 19.5 142t47 125t55 96t46.5 65l20 22l-273 -1v55h337v-55l-21 -24.5t-46.5 -64.5t-59 -99t-46.5 -122t-21 -139h-58z" />
    <glyph glyph-name="uni2078" unicode="&#x2078;" horiz-adv-x="471" 
d="M238 322q-186 0 -186 147q0 64 31 97t60 34q-22 2 -48 29.5t-26 77.5q0 138 169 138q167 0 167 -138q0 -51 -26 -78t-49 -29q29 -1 60.5 -34.5t31.5 -96.5q0 -147 -184 -147zM238 800q-112 0 -112 -98q0 -40 26.5 -60t85.5 -20q111 0 111 80q0 98 -111 98zM238 575
q-66 0 -96 -25t-30 -75q0 -103 126 -103q124 0 124 103q0 50 -29.5 75t-94.5 25z" />
    <glyph glyph-name="uni2079" unicode="&#x2079;" horiz-adv-x="473" 
d="M423 600q0 -157 -42 -218t-145 -61q-92 0 -135 43.5t-43 96.5h57q0 -36 30 -63t91 -27q62 0 92 36.5t36 137.5q-47 -61 -142 -61q-169 0 -169 189q0 172 184 172q101 0 143.5 -57t42.5 -188zM231 535q95 0 135 81q-2 99 -33 139t-96 40q-125 0 -125 -124q0 -66 30.5 -101
t88.5 -35z" />
    <glyph glyph-name="Euro" unicode="&#x20ac;" horiz-adv-x="610" 
d="M176 240q13 -93 55 -137t121 -44q67 0 105.5 32t42.5 95h59q-5 -88 -57 -135t-153 -47q-115 0 -171 58.5t-70 177.5h-84v50h80q-1 19 -1 60q0 32 1 48h-80v50h83q13 126 69 188t173 62q104 0 157 -50.5t56 -144.5h-60q-3 68 -42 104t-108 36q-81 0 -123.5 -47.5
t-53.5 -147.5h224v-50h-228q-1 -15 -1 -48q0 -22 2 -60h227v-50h-223z" />
    <glyph glyph-name="uni20BD" unicode="&#x20bd;" horiz-adv-x="623" 
d="M121 0v189h-97v52h97v84h-97v55l97 -1v331h204q138 0 200.5 -42.5t62.5 -150.5q0 -107 -62.5 -149.5t-200.5 -42.5h-136v-84h184v-52h-184v-189h-68zM189 656v-277h142q91 0 139.5 28.5t48.5 110.5t-48.5 110t-139.5 28h-142z" />
    <glyph glyph-name="uni2116" unicode="&#x2116;" horiz-adv-x="1215" 
d="M1111 479q0 -116 -44 -175.5t-156 -59.5q-110 0 -154.5 60t-44.5 175t44.5 175.5t154.5 61.5q112 0 156 -60.5t44 -176.5zM84 0l4 708h69l410 -612l-2 612h63v-708h-70l-411 612l-1 -612h-62zM776 479q0 -93 30.5 -137.5t105.5 -44.5t105.5 44.5t30.5 137.5q0 92 -31 138
t-106 46q-74 0 -104.5 -46t-30.5 -138zM708 117v58h407v-58h-407z" />
    <glyph glyph-name="uni2117" unicode="&#x2117;" horiz-adv-x="800" 
d="M747 348q0 -79 -17.5 -142t-55.5 -116t-107.5 -82t-166.5 -29q-96 0 -165 29t-108 82t-56.5 116.5t-17.5 141.5q0 79 17.5 143t56 117.5t108 83.5t165.5 30q78 0 138.5 -20t99 -54t64 -82.5t35.5 -102t10 -115.5zM103 348q0 -69 15 -125t48 -102t92.5 -71.5t141.5 -25.5
q83 0 142.5 25.5t92.5 71.5t48 101.5t15 125.5t-15 126.5t-48 103.5t-92.5 73t-142.5 26q-82 0 -141.5 -26t-92.5 -73t-48 -103.5t-15 -126.5zM269 143v409h154q75 0 110 -29t35 -105q0 -78 -34.5 -105.5t-111.5 -27.5h-105v-142h-48zM317 512v-187h102q24 0 39 2.5t30.5 11
t23 28.5t7.5 51q0 58 -25.5 76t-74.5 18h-102z" />
    <glyph glyph-name="uni2120" unicode="&#x2120;" horiz-adv-x="761" 
d="M303 465q0 -46 -32.5 -70.5t-94.5 -23.5q-125 1 -125 111h40q0 -76 84 -78q85 -1 85 60q0 27 -21 42.5t-51 23.5t-60.5 17.5t-51.5 32t-21 60.5q0 42 29.5 67t90.5 24q120 -1 120 -99h-40q0 30 -16.5 47.5t-62.5 17.5q-81 1 -81 -58q0 -26 21.5 -41.5t52 -23.5t61 -17.5
t52 -32t21.5 -59.5zM362 379v346h58l108 -309l113 309h57l-1 -346h-38l2 299l-112 -299h-42l-110 303l3 -303h-38z" />
    <glyph glyph-name="trademark" unicode="&#x2122;" horiz-adv-x="724" 
d="M136 380v308h-108v37h257v-37h-108v-308h-41zM315 379v346h58l109 -309l113 309h57l-1 -346h-39l3 299l-112 -299h-42l-110 301l3 -301h-39z" />
    <glyph glyph-name="oneeighth" unicode="&#x215b;" horiz-adv-x="938" 
d="M67 -40l529 827h63l-529 -827h-63zM104 253v441l-95 -45v61l113 52h37v-509h-55zM705 -8q-186 0 -186 147q0 64 31 97t60 34q-22 2 -48 29.5t-26 77.5q0 138 169 138q167 0 167 -138q0 -51 -26 -78t-49 -29q29 -1 60.5 -34.5t31.5 -96.5q0 -147 -184 -147zM705 470
q-112 0 -112 -98q0 -40 26.5 -60t85.5 -20q111 0 111 80q0 98 -111 98zM705 245q-66 0 -96 -25t-30 -75q0 -103 126 -103q124 0 124 103q0 50 -29.5 75t-94.5 25z" />
    <glyph glyph-name="threeeighths" unicode="&#x215c;" horiz-adv-x="1119" 
d="M248 -40l529 827h63l-529 -827h-63zM219 577q164 -13 164 -167q0 -76 -43.5 -121t-136.5 -45q-89 0 -131 42t-42 107h56q0 -42 30.5 -69t86.5 -27q121 0 121 116q0 56 -34 88t-95 32l-61 -6v44l159 132l-238 -1v52h317v-50zM886 -8q-186 0 -186 147q0 64 31 97t60 34
q-22 2 -48 29.5t-26 77.5q0 138 169 138q167 0 167 -138q0 -51 -26 -78t-49 -29q29 -1 60.5 -34.5t31.5 -96.5q0 -147 -184 -147zM886 470q-112 0 -112 -98q0 -40 26.5 -60t85.5 -20q111 0 111 80q0 98 -111 98zM886 245q-66 0 -96 -25t-30 -75q0 -103 126 -103
q124 0 124 103q0 50 -29.5 75t-94.5 25z" />
    <glyph glyph-name="fiveeighths" unicode="&#x215d;" horiz-adv-x="1142" 
d="M271 -40l529 827h63l-529 -827h-63zM151 705l-27 -152q40 33 116 33q81 0 123 -47t42 -124q0 -79 -43.5 -125t-135.5 -46t-137 41t-45 100h58q0 -38 32 -65t92 -27q122 0 122 122q0 59 -32.5 91t-89.5 32q-38 0 -66 -12.5t-36.5 -22t-10.5 -15.5l-53 1l44 265h274v-50z
M909 -8q-186 0 -186 147q0 64 31 97t60 34q-22 2 -48 29.5t-26 77.5q0 138 169 138q167 0 167 -138q0 -51 -26 -78t-49 -29q29 -1 60.5 -34.5t31.5 -96.5q0 -147 -184 -147zM909 470q-112 0 -112 -98q0 -40 26.5 -60t85.5 -20q111 0 111 80q0 98 -111 98zM909 245
q-66 0 -96 -25t-30 -75q0 -103 126 -103q124 0 124 103q0 50 -29.5 75t-94.5 25z" />
    <glyph glyph-name="seveneighths" unicode="&#x215e;" horiz-adv-x="1008" 
d="M137 -40l529 827h63l-529 -827h-63zM100 253q0 70 19.5 142t47 125t55 96t46.5 65l20 22l-273 -1v55h337v-55l-21 -24.5t-46.5 -64.5t-59 -99t-46.5 -122t-21 -139h-58zM775 -8q-186 0 -186 147q0 64 31 97t60 34q-22 2 -48 29.5t-26 77.5q0 138 169 138q167 0 167 -138
q0 -51 -26 -78t-49 -29q29 -1 60.5 -34.5t31.5 -96.5q0 -147 -184 -147zM775 470q-112 0 -112 -98q0 -40 26.5 -60t85.5 -20q111 0 111 80q0 98 -111 98zM775 245q-66 0 -96 -25t-30 -75q0 -103 126 -103q124 0 124 103q0 50 -29.5 75t-94.5 25z" />
    <glyph glyph-name="arrowleft" unicode="&#x2190;" horiz-adv-x="672" 
d="M638 259l-497 9l213 -168l-37 -40l-256 210v45l256 211l37 -42l-213 -168l497 9v-66z" />
    <glyph glyph-name="arrowup" unicode="&#x2191;" horiz-adv-x="553" 
d="M243 6l9 495l-168 -211l-40 37l210 256h45l211 -256l-42 -37l-168 212l9 -496h-66z" />
    <glyph glyph-name="arrowright" unicode="&#x2192;" horiz-adv-x="672" 
d="M34 324l496 -10l-212 169l37 41l256 -211v-44l-256 -211l-37 41l212 168l-496 -9v66z" />
    <glyph glyph-name="arrowdown" unicode="&#x2193;" horiz-adv-x="538" 
d="M302 578l-9 -495l168 211l41 -37l-210 -256h-45l-211 256l41 37l168 -213l-9 497h66z" />
    <glyph glyph-name="arrowboth" unicode="&#x2194;" horiz-adv-x="932" 
d="M618 499l253 -211v-45l-253 -210l-37 41l204 164l-639 -1l209 -165l-37 -41l-257 210v46l257 210l36 -41l-210 -166l644 2l-207 166z" />
    <glyph glyph-name="arrowupdn" unicode="&#x2195;" horiz-adv-x="555" 
d="M301 -140h-46l-210 254l42 37l164 -205l-1 648l-165 -209l-41 37l210 257h45l211 -257l-41 -36l-165 208l1 -650l166 206l40 -36z" />
    <glyph glyph-name="uni2196" unicode="&#x2196;" horiz-adv-x="543" 
d="M460 66l-345 358l32 -269l-55 -3l-32 330l31 32l330 -32l-3 -55l-269 30l358 -344z" />
    <glyph glyph-name="uni2197" unicode="&#x2197;" horiz-adv-x="544" 
d="M37 114l357 344l-269 -31l-2 55l330 32l31 -31l-32 -331l-55 4l31 269l-345 -358z" />
    <glyph glyph-name="uni2198" unicode="&#x2198;" horiz-adv-x="544" 
d="M84 518l344 -358l-31 270l55 2l32 -329l-31 -32l-330 32l2 55l270 -32l-358 346z" />
    <glyph glyph-name="uni2199" unicode="&#x2199;" horiz-adv-x="544" 
d="M507 471l-358 -345l270 32l2 -55l-329 -32l-32 32l32 329l55 -2l-32 -270l346 358z" />
    <glyph glyph-name="minus" unicode="&#x2212;" horiz-adv-x="423" 
d="M44 281v61h335v-61h-335z" />
    <glyph glyph-name="infinity" unicode="&#x221e;" horiz-adv-x="752" 
d="M196 142q-82 0 -120 43.5t-38 118.5t38.5 118.5t120.5 43.5q60 -1 100.5 -33t78.5 -89q39 58 79 89.5t100 32.5q81 0 120 -43.5t39 -118.5t-39 -118.5t-120 -43.5q-60 0 -100 32t-79 90q-40 -59 -80 -90.5t-100 -31.5zM91 304q0 -111 109 -111q47 0 80 28.5t69 82.5
q-24 36 -41 56t-45.5 37.5t-61.5 17.5q-110 0 -110 -111zM551 415q-47 -1 -80 -29t-69 -82q36 -54 69 -82.5t81 -28.5q109 0 109 111t-110 111z" />
    <glyph glyph-name="approxequal" unicode="&#x2248;" horiz-adv-x="525" 
d="M58 325q0 44 25 77.5t84 33.5q48 0 99.5 -27.5t86.5 -27.5q34 0 51.5 19t17.5 36h45q0 -44 -25 -77.5t-84 -33.5q-49 0 -100 27.5t-86 27.5q-34 0 -51.5 -19t-17.5 -36h-45zM58 176q0 44 25 77.5t84 33.5q48 0 99.5 -27.5t86.5 -27.5q34 0 51.5 19t17.5 36h45
q0 -44 -25 -77.5t-84 -33.5q-49 0 -100 27.5t-86 27.5q-34 0 -51.5 -19t-17.5 -36h-45z" />
    <glyph glyph-name="notequal" unicode="&#x2260;" horiz-adv-x="501" 
d="M106 116l50 88h-92v61h127l47 81h-174v61h209l49 84h57l-49 -84h110v-61h-145l-47 -81h192v-61h-227l-50 -88h-57z" />
    <glyph glyph-name="lessequal" unicode="&#x2264;" horiz-adv-x="533" 
d="M449 184l-374 140v70l374 124v-60l-323 -100l323 -115v-59zM74 102v61h375v-61h-375z" />
    <glyph glyph-name="greaterequal" unicode="&#x2265;" horiz-adv-x="533" 
d="M84 184v59l320 115l-320 100v60l374 -124v-70zM84 102v61h375v-61h-375z" />
    <glyph glyph-name="uni2661" unicode="&#x2661;" horiz-adv-x="716" 
d="M501 593q64 0 109.5 -44.5t45.5 -127.5q0 -60 -30.5 -124t-74.5 -112t-88 -87.5t-75 -59.5l-30 -21l-16 11q-16 11 -43 31.5t-58.5 48t-63.5 64t-58 75t-42.5 84.5t-15.5 90q1 83 45.5 127.5t108.5 44.5q41 0 76.5 -16.5t48.5 -29.5t19 -20v-1q0 1 5 7.5t17 16.5t28 19.5
t40.5 16.5t51.5 7zM358 97l1 1q15 10 31.5 22.5t54.5 47t66 68.5t50.5 80.5t22.5 88.5q0 58 -31 90t-73 32q-21 0 -41 -7.5t-33.5 -18.5t-23.5 -22.5t-15 -18.5l-5 -8h-6l-5.5 8t-15 18t-24.5 23t-33.5 18t-41.5 8q-42 0 -72.5 -32t-31.5 -90q0 -25 7.5 -51.5t20.5 -50.5
t30 -47.5t35.5 -43.5t37.5 -38t36 -32l30 -24l21 -16z" />
    <glyph glyph-name="i.loclTRK" horiz-adv-x="227" 
d="M80 642v113h67v-113h-67zM80 0v535h66v-535h-66z" />
    <glyph glyph-name="a.sc" horiz-adv-x="550" 
d="M9 0l231 591h70l231 -591h-71l-55 149h-282l-54 -149h-70zM154 207h240l-119 329z" />
    <glyph glyph-name="aacute.sc" horiz-adv-x="550" 
d="M245 690l73 136h71l-84 -136h-60zM9 0l231 591h70l231 -591h-71l-55 149h-282l-54 -149h-70zM154 207h240l-119 329z" />
    <glyph glyph-name="abreve.sc" horiz-adv-x="550" 
d="M408 800q0 -38 -34 -74.5t-98 -36.5t-98 36.5t-34 74.5h58q0 -21 21.5 -43t52.5 -22t53 22t22 43h57zM9 0l231 591h70l231 -591h-71l-55 149h-282l-54 -149h-70zM154 207h240l-119 329z" />
    <glyph glyph-name="acircumflex.sc" horiz-adv-x="550" 
d="M415 690h-66l-73 87l-73 -87h-65l106 134h63zM9 0l231 591h70l231 -591h-71l-55 149h-282l-54 -149h-70zM154 207h240l-119 329z" />
    <glyph glyph-name="adieresis.sc" horiz-adv-x="550" 
d="M168 690v121h63v-121h-63zM320 690v121h63v-121h-63zM9 0l231 591h70l231 -591h-71l-55 149h-282l-54 -149h-70zM154 207h240l-119 329z" />
    <glyph glyph-name="uni1EA1.sc" horiz-adv-x="550" 
d="M9 0l231 591h70l231 -591h-71l-55 149h-282l-54 -149h-70zM154 207h240l-119 329zM241 -178v106h66v-106h-66z" />
    <glyph glyph-name="agrave.sc" horiz-adv-x="550" 
d="M305 690h-60l-85 136h72zM9 0l231 591h70l231 -591h-71l-55 149h-282l-54 -149h-70zM154 207h240l-119 329z" />
    <glyph glyph-name="amacron.sc" horiz-adv-x="550" 
d="M159 768h234v-50h-234v50zM9 0l231 591h70l231 -591h-71l-55 149h-282l-54 -149h-70zM154 207h240l-119 329z" />
    <glyph glyph-name="aogonek.sc" horiz-adv-x="550" 
d="M380 -110q0 28 19.5 55t36.5 39.5t32 20.5l-53 144h-282l-54 -149h-70l231 591h70l231 -591h-12q-11 -5 -27 -15.5t-35.5 -34t-19.5 -46.5q0 -21 11.5 -31t29.5 -10q10 0 22 3.5t18 6.5l7 3v-43q-23 -18 -72 -18q-41 0 -62 20.5t-21 54.5zM154 207h240l-119 329z" />
    <glyph glyph-name="aring.sc" horiz-adv-x="550" 
d="M364 764q0 -38 -23.5 -60.5t-63.5 -22.5q-41 0 -64.5 22.5t-23.5 60.5q0 37 23.5 59.5t64.5 22.5q40 0 63.5 -22.5t23.5 -59.5zM238 764q0 -19 10.5 -29.5t28.5 -10.5q17 0 28 11t11 29t-11 28.5t-28 10.5q-18 0 -28.5 -10.5t-10.5 -28.5zM9 0l231 591h70l231 -591h-71
l-55 149h-282l-54 -149h-70zM154 207h240l-119 329z" />
    <glyph glyph-name="aringacute.sc" horiz-adv-x="550" 
d="M253 886l73 136h71l-84 -136h-60zM364 764q0 -38 -23.5 -60.5t-63.5 -22.5q-41 0 -64.5 22.5t-23.5 60.5q0 37 23.5 59.5t64.5 22.5q40 0 63.5 -22.5t23.5 -59.5zM238 764q0 -19 10.5 -29.5t28.5 -10.5q17 0 28 11t11 29t-11 28.5t-28 10.5q-18 0 -28.5 -10.5
t-10.5 -28.5zM9 0l231 591h70l231 -591h-71l-55 149h-282l-54 -149h-70zM154 207h240l-119 329z" />
    <glyph glyph-name="atilde.sc" horiz-adv-x="550" 
d="M413 790q0 -100 -79 -100q-34 0 -62.5 24.5t-46.5 24.5q-37 0 -37 -48h-48q0 100 79 100q33 0 62 -24t47 -24q37 0 37 47h48zM9 0l231 591h70l231 -591h-71l-55 149h-282l-54 -149h-70zM154 207h240l-119 329z" />
    <glyph glyph-name="ae.sc" horiz-adv-x="773" 
d="M9 0l321 591h415v-57h-314v-200h272v-55h-272v-222h319v-57h-383v156h-202l-83 -156h-73zM367 211v325l-173 -325h173z" />
    <glyph glyph-name="aeacute.sc" horiz-adv-x="773" 
d="M354 690l73 136h71l-84 -136h-60zM9 0l321 591h415v-57h-314v-200h272v-55h-272v-222h319v-57h-383v156h-202l-83 -156h-73zM367 211v325l-173 -325h173z" />
    <glyph glyph-name="b.sc" horiz-adv-x="548" 
d="M69 593h200q127 0 175 -36.5t48 -111.5q0 -106 -87 -135q103 -32 103 -148q0 -60 -16.5 -93t-69.5 -52t-154 -19h-199v595zM133 542v-205l165 -1q72 -1 101.5 24t29.5 79t-35.5 78.5t-120.5 24.5h-140zM133 283v-234h140q100 0 136.5 25t36.5 91q0 118 -148 118h-165z
" />
    <glyph glyph-name="ordfeminine.sc" horiz-adv-x="349" 
d="M266 297l-5 37q-44 -46 -116 -46q-115 0 -115 102q0 57 36 81t103 24q42 0 87 -5q-1 55 -16 75.5t-65 20.5q-85 0 -85 -64h-46q0 107 129 107q39 0 65 -9.5t39.5 -21.5t20 -38.5t7.5 -45t1 -57.5v-78l6 -82h-46zM154 332q40 0 67 16.5t35 37.5v63q-32 4 -75 4
q-52 0 -76 -13.5t-24 -47.5q0 -60 73 -60z" />
    <glyph glyph-name="ordmasculine.sc" horiz-adv-x="343" 
d="M316 459q0 -86 -31.5 -128t-112.5 -42q-80 0 -112.5 42.5t-32.5 127.5t32.5 128t112.5 43t112 -43t32 -128zM77 459q0 -66 21.5 -96.5t73.5 -30.5t73 30t21 97t-21 98t-73 31t-73.5 -31.5t-21.5 -97.5z" />
    <glyph glyph-name="c.sc" horiz-adv-x="551" 
d="M510 195q-3 -107 -57.5 -158.5t-164.5 -51.5q-132 0 -188 76.5t-56 233.5t56 234t188 77q220 0 223 -215h-63q-7 156 -160 156q-96 0 -137.5 -60.5t-41.5 -191.5q0 -130 41.5 -190.5t137.5 -60.5q151 0 158 151h64z" />
    <glyph glyph-name="cacute.sc" horiz-adv-x="551" 
d="M254 692l73 136h71l-84 -136h-60zM510 195q-3 -107 -57.5 -158.5t-164.5 -51.5q-132 0 -188 76.5t-56 233.5t56 234t188 77q220 0 223 -215h-63q-7 156 -160 156q-96 0 -137.5 -60.5t-41.5 -191.5q0 -130 41.5 -190.5t137.5 -60.5q151 0 158 151h64z" />
    <glyph glyph-name="ccaron.sc" horiz-adv-x="551" 
d="M424 826l-108 -134h-63l-106 134h64l73 -86l73 86h67zM510 195q-3 -107 -57.5 -158.5t-164.5 -51.5q-132 0 -188 76.5t-56 233.5t56 234t188 77q220 0 223 -215h-63q-7 156 -160 156q-96 0 -137.5 -60.5t-41.5 -191.5q0 -130 41.5 -190.5t137.5 -60.5q151 0 158 151h64z
" />
    <glyph glyph-name="ccedilla.sc" horiz-adv-x="551" 
d="M383 -137q0 -47 -28.5 -65.5t-92.5 -18.5q-16 0 -31.5 1.5t-22.5 3.5l-7 2v43q0 -1 5.5 -2.5t16.5 -3t24 -1.5q39 0 55 9.5t16 36.5q0 46 -84 46h-6l32 72q-117 8 -166.5 84t-49.5 225q0 157 56 234t188 77q220 0 223 -215h-63q-7 156 -160 156q-96 0 -137.5 -60.5
t-41.5 -191.5q0 -130 41.5 -190.5t137.5 -60.5q151 0 158 151h64q-3 -99 -49 -150.5t-139 -58.5l-22 -48q83 -7 83 -75z" />
    <glyph glyph-name="ccircumflex.sc" horiz-adv-x="551" 
d="M424 692h-66l-73 87l-73 -87h-65l106 134h63zM510 195q-3 -107 -57.5 -158.5t-164.5 -51.5q-132 0 -188 76.5t-56 233.5t56 234t188 77q220 0 223 -215h-63q-7 156 -160 156q-96 0 -137.5 -60.5t-41.5 -191.5q0 -130 41.5 -190.5t137.5 -60.5q151 0 158 151h64z" />
    <glyph glyph-name="cdotaccent.sc" horiz-adv-x="551" 
d="M252 700v113h67v-113h-67zM510 195q-3 -107 -57.5 -158.5t-164.5 -51.5q-132 0 -188 76.5t-56 233.5t56 234t188 77q220 0 223 -215h-63q-7 156 -160 156q-96 0 -137.5 -60.5t-41.5 -191.5q0 -130 41.5 -190.5t137.5 -60.5q151 0 158 151h64z" />
    <glyph glyph-name="d.sc" horiz-adv-x="565" 
d="M69 593h184q83 0 136 -17.5t82 -57t39.5 -91.5t10.5 -132t-10.5 -131.5t-39.5 -91t-82 -57t-136 -17.5h-184v595zM134 537v-483h130q107 -1 149 53.5t42 187.5q0 134 -41.5 188t-149.5 54h-130z" />
    <glyph glyph-name="eth.sc" horiz-adv-x="565" 
d="M69 271h-76v51h76v271h184q83 0 136 -17.5t82 -57t39.5 -91.5t10.5 -132t-10.5 -131.5t-39.5 -91t-82 -57t-136 -17.5h-184v273zM134 271v-217h130q107 -1 149 53.5t42 187.5q0 134 -41.5 188t-149.5 54h-130v-215h115v-51h-115z" />
    <glyph glyph-name="dcaron.sc" horiz-adv-x="565" 
d="M405 824l-108 -134h-63l-106 134h64l73 -86l73 86h67zM69 593h184q83 0 136 -17.5t82 -57t39.5 -91.5t10.5 -132t-10.5 -131.5t-39.5 -91t-82 -57t-136 -17.5h-184v595zM134 537v-483h130q107 -1 149 53.5t42 187.5q0 134 -41.5 188t-149.5 54h-130z" />
    <glyph glyph-name="dcroat.sc" horiz-adv-x="565" 
d="M69 271h-76v51h76v271h184q83 0 136 -17.5t82 -57t39.5 -91.5t10.5 -132t-10.5 -131.5t-39.5 -91t-82 -57t-136 -17.5h-184v273zM134 271v-217h130q107 -1 149 53.5t42 187.5q0 134 -41.5 188t-149.5 54h-130v-215h115v-51h-115z" />
    <glyph glyph-name="e.sc" horiz-adv-x="475" 
d="M69 0v591h378v-57h-314v-197h272v-60h-272v-220h319v-57h-383z" />
    <glyph glyph-name="eacute.sc" horiz-adv-x="475" 
d="M225 690l73 136h71l-84 -136h-60zM69 0v591h378v-57h-314v-197h272v-60h-272v-220h319v-57h-383z" />
    <glyph glyph-name="ebreve.sc" horiz-adv-x="475" 
d="M388 800q0 -38 -34 -74.5t-98 -36.5t-98 36.5t-34 74.5h58q0 -21 21.5 -43t52.5 -22t53 22t22 43h57zM69 0v591h378v-57h-314v-197h272v-60h-272v-220h319v-57h-383z" />
    <glyph glyph-name="ecaron.sc" horiz-adv-x="475" 
d="M395 824l-108 -134h-63l-106 134h64l73 -86l73 86h67zM69 0v591h378v-57h-314v-197h272v-60h-272v-220h319v-57h-383z" />
    <glyph glyph-name="ecircumflex.sc" horiz-adv-x="475" 
d="M395 690h-66l-73 87l-73 -87h-65l106 134h63zM69 0v591h378v-57h-314v-197h272v-60h-272v-220h319v-57h-383z" />
    <glyph glyph-name="edieresis.sc" horiz-adv-x="475" 
d="M148 690v121h63v-121h-63zM300 690v121h63v-121h-63zM69 0v591h378v-57h-314v-197h272v-60h-272v-220h319v-57h-383z" />
    <glyph glyph-name="edotaccent.sc" horiz-adv-x="475" 
d="M223 698v113h67v-113h-67zM69 0v591h378v-57h-314v-197h272v-60h-272v-220h319v-57h-383z" />
    <glyph glyph-name="uni1EB9.sc" horiz-adv-x="475" 
d="M69 0v591h378v-57h-314v-197h272v-60h-272v-220h319v-57h-383zM227 -178v106h66v-106h-66z" />
    <glyph glyph-name="egrave.sc" horiz-adv-x="475" 
d="M285 690h-60l-85 136h72zM69 0v591h378v-57h-314v-197h272v-60h-272v-220h319v-57h-383z" />
    <glyph glyph-name="emacron.sc" horiz-adv-x="475" 
d="M139 768h234v-50h-234v50zM69 0v591h378v-57h-314v-197h272v-60h-272v-220h319v-57h-383z" />
    <glyph glyph-name="eogonek.sc" horiz-adv-x="475" 
d="M300 -111q0 63 80 111h-311v591h378v-57h-314v-197h272v-60h-272v-220h319v-57q-10 -5 -24 -13t-37.5 -33.5t-23.5 -50.5q0 -21 11.5 -31t29.5 -10q10 0 22 3t18 7l7 3v-43q-23 -18 -72 -18q-41 0 -62 21t-21 54z" />
    <glyph glyph-name="uni1EBD.sc" horiz-adv-x="475" 
d="M393 790q0 -100 -79 -100q-34 0 -62.5 24.5t-46.5 24.5q-37 0 -37 -48h-48q0 100 79 100q33 0 62 -24t47 -24q37 0 37 47h48zM69 0v591h378v-57h-314v-197h272v-60h-272v-220h319v-57h-383z" />
    <glyph glyph-name="f.sc" horiz-adv-x="452" 
d="M69 0v591h375v-57h-311v-210h269v-60h-269v-264h-64z" />
    <glyph glyph-name="g.sc" horiz-adv-x="555" 
d="M503 68q0 -3 -7.5 -12t-25 -21t-41.5 -23t-62 -19t-81 -8q-130 0 -186 76.5t-56 232.5q0 157 55.5 234.5t186.5 77.5q108 0 163.5 -54.5t55.5 -144.5h-62q-1 62 -42 101t-115 39q-94 0 -135.5 -61t-41.5 -192t41.5 -191.5t137.5 -60.5q46 0 84 12t55 24.5t17 20.5v136
h-126v52h185v-219z" />
    <glyph glyph-name="gbreve.sc" horiz-adv-x="555" 
d="M417 802q0 -38 -34 -74.5t-98 -36.5t-98 36.5t-34 74.5h58q0 -21 21.5 -43t52.5 -22t53 22t22 43h57zM503 68q0 -3 -7.5 -12t-25 -21t-41.5 -23t-62 -19t-81 -8q-130 0 -186 76.5t-56 232.5q0 157 55.5 234.5t186.5 77.5q108 0 163.5 -54.5t55.5 -144.5h-62
q-1 62 -42 101t-115 39q-94 0 -135.5 -61t-41.5 -192t41.5 -191.5t137.5 -60.5q46 0 84 12t55 24.5t17 20.5v136h-126v52h185v-219z" />
    <glyph glyph-name="gcaron.sc" horiz-adv-x="555" 
d="M424 826l-108 -134h-63l-106 134h64l73 -86l73 86h67zM503 68q0 -3 -7.5 -12t-25 -21t-41.5 -23t-62 -19t-81 -8q-130 0 -186 76.5t-56 232.5q0 157 55.5 234.5t186.5 77.5q108 0 163.5 -54.5t55.5 -144.5h-62q-1 62 -42 101t-115 39q-94 0 -135.5 -61t-41.5 -192
t41.5 -191.5t137.5 -60.5q46 0 84 12t55 24.5t17 20.5v136h-126v52h185v-219z" />
    <glyph glyph-name="gcircumflex.sc" horiz-adv-x="555" 
d="M424 692h-66l-73 87l-73 -87h-65l106 134h63zM503 68q0 -3 -7.5 -12t-25 -21t-41.5 -23t-62 -19t-81 -8q-130 0 -186 76.5t-56 232.5q0 157 55.5 234.5t186.5 77.5q108 0 163.5 -54.5t55.5 -144.5h-62q-1 62 -42 101t-115 39q-94 0 -135.5 -61t-41.5 -192t41.5 -191.5
t137.5 -60.5q46 0 84 12t55 24.5t17 20.5v136h-126v52h185v-219z" />
    <glyph glyph-name="gcommaaccent.sc" horiz-adv-x="555" 
d="M503 68q0 -3 -7.5 -12t-25 -21t-41.5 -23t-62 -19t-81 -8q-130 0 -186 76.5t-56 232.5q0 157 55.5 234.5t186.5 77.5q108 0 163.5 -54.5t55.5 -144.5h-62q-1 62 -42 101t-115 39q-94 0 -135.5 -61t-41.5 -192t41.5 -191.5t137.5 -60.5q46 0 84 12t55 24.5t17 20.5v136
h-126v52h185v-219zM235 -236q16 37 29 91q5 22 8.5 44t3.5 33l1 12h61q-4 -46 -18 -93q-8 -25 -17 -46.5t-15 -30.5l-5 -10h-48z" />
    <glyph glyph-name="gdotaccent.sc" horiz-adv-x="555" 
d="M252 700v113h67v-113h-67zM503 68q0 -3 -7.5 -12t-25 -21t-41.5 -23t-62 -19t-81 -8q-130 0 -186 76.5t-56 232.5q0 157 55.5 234.5t186.5 77.5q108 0 163.5 -54.5t55.5 -144.5h-62q-1 62 -42 101t-115 39q-94 0 -135.5 -61t-41.5 -192t41.5 -191.5t137.5 -60.5
q46 0 84 12t55 24.5t17 20.5v136h-126v52h185v-219z" />
    <glyph glyph-name="h.sc" horiz-adv-x="579" 
d="M69 0v591h64v-255h313v255h64v-591h-64v278h-313v-278h-64z" />
    <glyph glyph-name="hbar.sc" horiz-adv-x="579" 
d="M510 415v-415h-64v278h-313v-278h-64v415h-71v57h71v119h64v-119h313v119h64v-119h72v-57h-72zM446 336v79h-313v-79h313z" />
    <glyph glyph-name="hcircumflex.sc" horiz-adv-x="579" 
d="M429 690h-66l-73 87l-73 -87h-65l106 134h63zM69 0v591h64v-255h313v255h64v-591h-64v278h-313v-278h-64z" />
    <glyph glyph-name="i.sc" horiz-adv-x="202" 
d="M69 0v591h64v-591h-64z" />
    <glyph glyph-name="iacute.sc" horiz-adv-x="202" 
d="M72 690l73 136h71l-84 -136h-60zM69 0v591h64v-591h-64z" />
    <glyph glyph-name="ibreve.sc" horiz-adv-x="202" 
d="M235 800q0 -38 -34 -74.5t-98 -36.5t-98 36.5t-34 74.5h58q0 -21 21.5 -43t52.5 -22t53 22t22 43h57zM69 0v591h64v-591h-64z" />
    <glyph glyph-name="icircumflex.sc" horiz-adv-x="202" 
d="M242 690h-66l-73 87l-73 -87h-65l106 134h63zM69 0v591h64v-591h-64z" />
    <glyph glyph-name="idieresis.sc" horiz-adv-x="202" 
d="M-5 690v121h63v-121h-63zM147 690v121h63v-121h-63zM69 0v591h64v-591h-64z" />
    <glyph glyph-name="i.sc.loclTRK" horiz-adv-x="202" 
d="M70 698v113h67v-113h-67zM69 0v591h64v-591h-64z" />
    <glyph glyph-name="uni1ECB.sc" horiz-adv-x="202" 
d="M69 0v591h64v-591h-64zM67 -180v106h66v-106h-66z" />
    <glyph glyph-name="igrave.sc" horiz-adv-x="202" 
d="M132 690h-60l-85 136h72zM69 0v591h64v-591h-64z" />
    <glyph glyph-name="ij.sc" horiz-adv-x="507" 
d="M69 0v591h64v-591h-64zM448 228q0 -69 -6.5 -107.5t-27.5 -68.5t-60.5 -41t-106.5 -11h-44v57h44q84 0 110 35t26 136l1 363h64v-363z" />
    <glyph glyph-name="imacron.sc" horiz-adv-x="202" 
d="M-14 768h234v-50h-234v50zM69 0v591h64v-591h-64z" />
    <glyph glyph-name="iogonek.sc" horiz-adv-x="202" 
d="M-23 -111q0 24 12.5 46.5t32 38t29.5 22t18 10.5v585h64v-591h-4q-10 -5 -24 -13t-37.5 -33.5t-23.5 -50.5q0 -21 11.5 -31t29.5 -10q10 0 22 3t19 7l6 3v-43q-23 -18 -72 -18q-42 0 -62.5 21t-20.5 54z" />
    <glyph glyph-name="itilde.sc" horiz-adv-x="202" 
d="M240 790q0 -100 -79 -100q-34 0 -62.5 24.5t-46.5 24.5q-37 0 -37 -48h-48q0 100 79 100q34 0 62 -24t47 -24q37 0 37 47h48zM69 0v591h64v-591h-64z" />
    <glyph glyph-name="j.sc" horiz-adv-x="305" 
d="M246 228q0 -69 -6.5 -107.5t-27.5 -68.5t-60.5 -41t-106.5 -11h-44v57h44q84 0 110 35t26 136l1 363h64v-363z" />
    <glyph glyph-name="jcircumflex.sc" horiz-adv-x="305" 
d="M353 690h-66l-73 87l-73 -87h-65l106 134h63zM246 228q0 -69 -6.5 -107.5t-27.5 -68.5t-60.5 -41t-106.5 -11h-44v57h44q84 0 110 35t26 136l1 363h64v-363z" />
    <glyph glyph-name="k.sc" horiz-adv-x="526" 
d="M69 0v591h64v-361l301 361h81l-209 -245l211 -346h-74l-179 296l-131 -154v-142h-64z" />
    <glyph glyph-name="kcommaaccent.sc" horiz-adv-x="526" 
d="M69 0v591h64v-361l301 361h81l-209 -245l211 -346h-74l-179 296l-131 -154v-142h-64zM198 -219q16 37 29 91q5 22 8.5 44t4.5 34v11h61q-4 -46 -18 -93q-8 -25 -17 -46.5t-14 -31.5l-6 -9h-48z" />
    <glyph glyph-name="l.sc" horiz-adv-x="419" 
d="M69 0v591h64v-531h276v-60h-340z" />
    <glyph glyph-name="lacute.sc" horiz-adv-x="419" 
d="M78 690l73 136h71l-84 -136h-60zM69 0v591h64v-531h276v-60h-340z" />
    <glyph glyph-name="lcaron.sc" horiz-adv-x="419" 
d="M219 464l49 143h59l-65 -143h-43zM69 0v591h64v-531h276v-60h-340z" />
    <glyph glyph-name="lcommaaccent.sc" horiz-adv-x="419" 
d="M69 0v591h64v-531h276v-60h-340zM169 -216q16 37 29 91q5 22 8.5 44t3.5 33l1 12h61q-4 -46 -18 -93q-8 -25 -17 -46.5t-15 -30.5l-5 -10h-48z" />
    <glyph glyph-name="ldot.sc" horiz-adv-x="419" 
d="M69 0v591h64v-531h276v-60h-340zM258 244v122h70v-122h-70z" />
    <glyph glyph-name="lslash.sc" horiz-adv-x="419" 
d="M133 286v-226h276v-60h-340v248l-78 -47l-24 44l102 61v285h64v-246l82 50l24 -45z" />
    <glyph glyph-name="m.sc" horiz-adv-x="753" 
d="M69 0v591h88l216 -529l218 529h93l-2 -591h-62l4 517l-220 -517h-63l-216 517l6 -517h-62z" />
    <glyph glyph-name="n.sc" horiz-adv-x="603" 
d="M128 513l2 -513h-61l3 591h69l335 -509l-4 509h62v-591h-68z" />
    <glyph glyph-name="nacute.sc" horiz-adv-x="603" 
d="M272 690l73 136h71l-84 -136h-60zM128 513l2 -513h-61l3 591h69l335 -509l-4 509h62v-591h-68z" />
    <glyph glyph-name="ncaron.sc" horiz-adv-x="603" 
d="M442 824l-108 -134h-63l-106 134h64l73 -86l73 86h67zM128 513l2 -513h-61l3 591h69l335 -509l-4 509h62v-591h-68z" />
    <glyph glyph-name="ncommaaccent.sc" horiz-adv-x="603" 
d="M128 513l2 -513h-61l3 591h69l335 -509l-4 509h62v-591h-68zM248 -219q16 37 29 91q5 22 8.5 44t4.5 34v11h61q-4 -46 -18 -93q-8 -25 -17 -46.5t-14 -31.5l-6 -9h-48z" />
    <glyph glyph-name="eng.sc" horiz-adv-x="602" 
d="M533 591v-591q0 -95 -33 -140t-128 -45h-43v51h43q59 0 82 31t23 103l-349 505l2 -505h-61l3 591h67l337 -492l-3 492h60z" />
    <glyph glyph-name="uni0272.sc" horiz-adv-x="602" 
d="M129 509l-1 -509q0 -99 -31 -142t-125 -43h-42v52h42q58 0 78 28t20 105l3 591h68l334 -504l-4 504h62v-591h-68z" />
    <glyph glyph-name="ntilde.sc" horiz-adv-x="603" 
d="M440 790q0 -100 -79 -100q-34 0 -62.5 24.5t-46.5 24.5q-37 0 -37 -48h-48q0 100 79 100q33 0 61.5 -24t47.5 -24q37 0 37 47h48zM128 513l2 -513h-61l3 591h69l335 -509l-4 509h62v-591h-68z" />
    <glyph glyph-name="o.sc" horiz-adv-x="583" 
d="M539 295q0 -157 -57 -233.5t-191 -76.5t-190.5 76.5t-56.5 233.5t56.5 234t190.5 77t191 -77t57 -234zM109 295q0 -133 42 -193.5t140 -60.5t140.5 60.5t42.5 193.5t-42.5 194t-140.5 61t-140 -61t-42 -194z" />
    <glyph glyph-name="oacute.sc" horiz-adv-x="583" 
d="M261 692l73 136h71l-84 -136h-60zM539 295q0 -157 -57 -233.5t-191 -76.5t-190.5 76.5t-56.5 233.5t56.5 234t190.5 77t191 -77t57 -234zM109 295q0 -133 42 -193.5t140 -60.5t140.5 60.5t42.5 193.5t-42.5 194t-140.5 61t-140 -61t-42 -194z" />
    <glyph glyph-name="obreve.sc" horiz-adv-x="583" 
d="M424 802q0 -38 -34 -74.5t-98 -36.5t-98 36.5t-34 74.5h58q0 -21 21.5 -43t52.5 -22t53 22t22 43h57zM539 295q0 -157 -57 -233.5t-191 -76.5t-190.5 76.5t-56.5 233.5t56.5 234t190.5 77t191 -77t57 -234zM109 295q0 -133 42 -193.5t140 -60.5t140.5 60.5t42.5 193.5
t-42.5 194t-140.5 61t-140 -61t-42 -194z" />
    <glyph glyph-name="ocircumflex.sc" horiz-adv-x="583" 
d="M431 692h-66l-73 87l-73 -87h-65l106 134h63zM539 295q0 -157 -57 -233.5t-191 -76.5t-190.5 76.5t-56.5 233.5t56.5 234t190.5 77t191 -77t57 -234zM109 295q0 -133 42 -193.5t140 -60.5t140.5 60.5t42.5 193.5t-42.5 194t-140.5 61t-140 -61t-42 -194z" />
    <glyph glyph-name="odieresis.sc" horiz-adv-x="583" 
d="M184 692v121h63v-121h-63zM336 692v121h63v-121h-63zM539 295q0 -157 -57 -233.5t-191 -76.5t-190.5 76.5t-56.5 233.5t56.5 234t190.5 77t191 -77t57 -234zM109 295q0 -133 42 -193.5t140 -60.5t140.5 60.5t42.5 193.5t-42.5 194t-140.5 61t-140 -61t-42 -194z" />
    <glyph glyph-name="uni1ECD.sc" horiz-adv-x="583" 
d="M539 295q0 -157 -57 -233.5t-191 -76.5t-190.5 76.5t-56.5 233.5t56.5 234t190.5 77t191 -77t57 -234zM109 295q0 -133 42 -193.5t140 -60.5t140.5 60.5t42.5 193.5t-42.5 194t-140.5 61t-140 -61t-42 -194zM259 -179v106h66v-106h-66z" />
    <glyph glyph-name="ograve.sc" horiz-adv-x="583" 
d="M321 692h-60l-85 136h72zM539 295q0 -157 -57 -233.5t-191 -76.5t-190.5 76.5t-56.5 233.5t56.5 234t190.5 77t191 -77t57 -234zM109 295q0 -133 42 -193.5t140 -60.5t140.5 60.5t42.5 193.5t-42.5 194t-140.5 61t-140 -61t-42 -194z" />
    <glyph glyph-name="ohungarumlaut.sc" horiz-adv-x="583" 
d="M179 692l66 136h72l-79 -136h-59zM314 692l78 136h72l-90 -136h-60zM539 295q0 -157 -57 -233.5t-191 -76.5t-190.5 76.5t-56.5 233.5t56.5 234t190.5 77t191 -77t57 -234zM109 295q0 -133 42 -193.5t140 -60.5t140.5 60.5t42.5 193.5t-42.5 194t-140.5 61t-140 -61
t-42 -194z" />
    <glyph glyph-name="omacron.sc" horiz-adv-x="583" 
d="M175 770h234v-50h-234v50zM539 295q0 -157 -57 -233.5t-191 -76.5t-190.5 76.5t-56.5 233.5t56.5 234t190.5 77t191 -77t57 -234zM109 295q0 -133 42 -193.5t140 -60.5t140.5 60.5t42.5 193.5t-42.5 194t-140.5 61t-140 -61t-42 -194z" />
    <glyph glyph-name="uni01EB.sc" horiz-adv-x="583" 
d="M287 -90q0 39 36 77q-20 -2 -32 -2q-134 0 -190.5 76.5t-56.5 233.5t56.5 234t190.5 77t191 -77t57 -234q0 -209 -100 -274q-10 -5 -24 -13t-37.5 -33.5t-23.5 -50.5q0 -21 11.5 -31t29.5 -10q10 0 22 3.5t19 6.5l6 3v-43q-23 -18 -72 -18q-42 0 -62.5 20.5t-20.5 54.5z
M109 295q0 -133 42 -193.5t140 -60.5t140.5 60.5t42.5 193.5t-42.5 194t-140.5 61t-140 -61t-42 -194z" />
    <glyph glyph-name="oslash.sc" horiz-adv-x="583" 
d="M30 -17l63 88q-49 73 -49 224q0 157 56.5 234t190.5 77q99 0 157 -44l27 38h80l-62 -87q46 -75 46 -218q0 -157 -57 -233.5t-191 -76.5q-93 0 -151 39l-30 -41h-80zM109 295q0 -108 26 -166l276 383q-43 38 -120 38q-98 0 -140 -61t-42 -194zM474 295q0 99 -24 159
l-274 -380q42 -33 115 -33q98 0 140.5 60.5t42.5 193.5z" />
    <glyph glyph-name="oslashacute.sc" horiz-adv-x="583" 
d="M261 692l73 136h71l-84 -136h-60zM30 -17l63 88q-49 73 -49 224q0 157 56.5 234t190.5 77q99 0 157 -44l27 38h80l-62 -87q46 -75 46 -218q0 -157 -57 -233.5t-191 -76.5q-93 0 -151 39l-30 -41h-80zM109 295q0 -108 26 -166l276 383q-43 38 -120 38q-98 0 -140 -61
t-42 -194zM474 295q0 99 -24 159l-274 -380q42 -33 115 -33q98 0 140.5 60.5t42.5 193.5z" />
    <glyph glyph-name="otilde.sc" horiz-adv-x="583" 
d="M429 792q0 -100 -79 -100q-34 0 -62.5 24.5t-46.5 24.5q-37 0 -37 -48h-48q0 100 79 100q33 0 62 -24t47 -24q37 0 37 47h48zM539 295q0 -157 -57 -233.5t-191 -76.5t-190.5 76.5t-56.5 233.5t56.5 234t190.5 77t191 -77t57 -234zM109 295q0 -133 42 -193.5t140 -60.5
t140.5 60.5t42.5 193.5t-42.5 194t-140.5 61t-140 -61t-42 -194z" />
    <glyph glyph-name="oe.sc" horiz-adv-x="808" 
d="M291 0q-134 0 -190.5 73.5t-56.5 221.5q0 149 56.5 222.5t190.5 73.5h489v-57h-314v-200h272v-55h-272v-222h319v-57h-494zM109 295q0 -122 42.5 -181.5t139.5 -59.5h111v483h-111q-97 0 -139.5 -59.5t-42.5 -182.5z" />
    <glyph glyph-name="p.sc" horiz-adv-x="539" 
d="M69 0v593h191q135 0 192 -41t57 -150q0 -110 -57 -151t-193 -41h-126v-210h-64zM133 538v-271h136q90 0 132 26t42 110q0 83 -42 109t-132 26h-136z" />
    <glyph glyph-name="thorn.sc" horiz-adv-x="530" 
d="M69 0v591h66l-1 -103h146q117 0 168.5 -41t51.5 -150t-51.5 -149.5t-169.5 -40.5h-145v-107h-65zM134 431v-268h148q77 0 115.5 26t38.5 109q0 82 -39 107.5t-116 25.5h-147z" />
    <glyph glyph-name="q.sc" horiz-adv-x="589" 
d="M539 295q0 -186 -79 -257l97 -80l-48 -42l-96 91q-52 -22 -122 -22q-134 0 -190.5 76.5t-56.5 233.5t56.5 234t190.5 77t191 -77t57 -234zM109 295q0 -133 42 -193.5t140 -60.5t140.5 60.5t42.5 193.5t-42.5 194t-140.5 61t-140 -61t-42 -194z" />
    <glyph glyph-name="r.sc" horiz-adv-x="554" 
d="M69 0v593h207q127 0 180.5 -38t53.5 -144q0 -80 -29.5 -119.5t-95.5 -53.5l133 -238h-70l-124 231q-16 -1 -50 -1h-141v-230h-64zM133 537v-250h137q45 0 72.5 3.5t53 16t37 38t11.5 67.5q0 78 -41.5 101.5t-132.5 23.5h-137z" />
    <glyph glyph-name="racute.sc" horiz-adv-x="554" 
d="M238 690l73 136h71l-84 -136h-60zM69 0v593h207q127 0 180.5 -38t53.5 -144q0 -80 -29.5 -119.5t-95.5 -53.5l133 -238h-70l-124 231q-16 -1 -50 -1h-141v-230h-64zM133 537v-250h137q45 0 72.5 3.5t53 16t37 38t11.5 67.5q0 78 -41.5 101.5t-132.5 23.5h-137z" />
    <glyph glyph-name="rcaron.sc" horiz-adv-x="554" 
d="M408 824l-108 -134h-63l-106 134h64l73 -86l73 86h67zM69 0v593h207q127 0 180.5 -38t53.5 -144q0 -80 -29.5 -119.5t-95.5 -53.5l133 -238h-70l-124 231q-16 -1 -50 -1h-141v-230h-64zM133 537v-250h137q45 0 72.5 3.5t53 16t37 38t11.5 67.5q0 78 -41.5 101.5
t-132.5 23.5h-137z" />
    <glyph glyph-name="rcommaaccent.sc" horiz-adv-x="554" 
d="M69 0v593h207q127 0 180.5 -38t53.5 -144q0 -80 -29.5 -119.5t-95.5 -53.5l133 -238h-70l-124 231q-16 -1 -50 -1h-141v-230h-64zM133 537v-250h137q45 0 72.5 3.5t53 16t37 38t11.5 67.5q0 78 -41.5 101.5t-132.5 23.5h-137zM212 -219q16 37 29 91q5 22 8.5 44t4.5 34
v11h61q-4 -46 -18 -93q-8 -25 -17 -46.5t-14 -31.5l-6 -9h-48z" />
    <glyph glyph-name="s.sc" horiz-adv-x="523" 
d="M486 150q0 -82 -57.5 -124.5t-165.5 -40.5q-222 3 -222 194h63q0 -137 161 -138q157 -3 157 107q0 35 -20.5 59t-54 36.5t-73.5 22.5t-80 22t-73.5 29t-54 49.5t-20.5 78.5q1 76 54 119t159 42q116 -1 164.5 -46.5t48.5 -129.5h-63q0 24 -5.5 42.5t-20 37t-46 29
t-78.5 11.5q-80 1 -114.5 -28t-34.5 -76q0 -40 28 -65.5t69.5 -36.5l90.5 -25t90.5 -29t69.5 -51t28 -89z" />
    <glyph glyph-name="sacute.sc" horiz-adv-x="523" 
d="M229 692l73 136h71l-84 -136h-60zM486 150q0 -82 -57.5 -124.5t-165.5 -40.5q-222 3 -222 194h63q0 -137 161 -138q157 -3 157 107q0 35 -20.5 59t-54 36.5t-73.5 22.5t-80 22t-73.5 29t-54 49.5t-20.5 78.5q1 76 54 119t159 42q116 -1 164.5 -46.5t48.5 -129.5h-63
q0 24 -5.5 42.5t-20 37t-46 29t-78.5 11.5q-80 1 -114.5 -28t-34.5 -76q0 -40 28 -65.5t69.5 -36.5l90.5 -25t90.5 -29t69.5 -51t28 -89z" />
    <glyph glyph-name="scaron.sc" horiz-adv-x="523" 
d="M399 826l-108 -134h-63l-106 134h64l73 -86l73 86h67zM486 150q0 -82 -57.5 -124.5t-165.5 -40.5q-222 3 -222 194h63q0 -137 161 -138q157 -3 157 107q0 35 -20.5 59t-54 36.5t-73.5 22.5t-80 22t-73.5 29t-54 49.5t-20.5 78.5q1 76 54 119t159 42q116 -1 164.5 -46.5
t48.5 -129.5h-63q0 24 -5.5 42.5t-20 37t-46 29t-78.5 11.5q-80 1 -114.5 -28t-34.5 -76q0 -40 28 -65.5t69.5 -36.5l90.5 -25t90.5 -29t69.5 -51t28 -89z" />
    <glyph glyph-name="scedilla.sc" horiz-adv-x="523" 
d="M359 -144q0 -47 -28.5 -65.5t-92.5 -18.5q-16 0 -31.5 2t-22.5 4l-7 1v43q0 -1 5.5 -2.5t16.5 -3t24 -1.5q39 0 55 9.5t16 36.5q0 46 -84 46h-6l35 79q-198 14 -198 193h63q0 -137 161 -138q157 -3 157 107q0 35 -20.5 59t-54 36.5t-73.5 22.5t-80 22t-73.5 29t-54 49.5
t-20.5 78.5q1 76 54 119t159 42q116 -1 164.5 -46.5t48.5 -129.5h-63q0 24 -5.5 42.5t-20 37t-46 29t-78.5 11.5q-80 1 -114.5 -28t-34.5 -76q0 -40 28 -65.5t69.5 -36.5l90.5 -25t90.5 -29t69.5 -51t28 -89q0 -75 -47.5 -116.5t-137.5 -47.5l-25 -55q83 -7 83 -75z" />
    <glyph glyph-name="scircumflex.sc" horiz-adv-x="523" 
d="M399 692h-66l-73 87l-73 -87h-65l106 134h63zM486 150q0 -82 -57.5 -124.5t-165.5 -40.5q-222 3 -222 194h63q0 -137 161 -138q157 -3 157 107q0 35 -20.5 59t-54 36.5t-73.5 22.5t-80 22t-73.5 29t-54 49.5t-20.5 78.5q1 76 54 119t159 42q116 -1 164.5 -46.5
t48.5 -129.5h-63q0 24 -5.5 42.5t-20 37t-46 29t-78.5 11.5q-80 1 -114.5 -28t-34.5 -76q0 -40 28 -65.5t69.5 -36.5l90.5 -25t90.5 -29t69.5 -51t28 -89z" />
    <glyph glyph-name="scommaaccent.sc" horiz-adv-x="523" 
d="M486 150q0 -82 -57.5 -124.5t-165.5 -40.5q-222 3 -222 194h63q0 -137 161 -138q157 -3 157 107q0 35 -20.5 59t-54 36.5t-73.5 22.5t-80 22t-73.5 29t-54 49.5t-20.5 78.5q1 76 54 119t159 42q116 -1 164.5 -46.5t48.5 -129.5h-63q0 24 -5.5 42.5t-20 37t-46 29
t-78.5 11.5q-80 1 -114.5 -28t-34.5 -76q0 -40 28 -65.5t69.5 -36.5l90.5 -25t90.5 -29t69.5 -51t28 -89zM216 -232q16 37 29 91q5 22 8.5 44t4.5 33v12h61q-4 -46 -18 -93q-8 -25 -17 -46.5t-14 -30.5l-6 -10h-48z" />
    <glyph glyph-name="germandbls.sc" horiz-adv-x="573" 
d="M533 188q0 -86 -49.5 -137t-159.5 -51h-129v54h126q145 0 145 142q0 66 -40 101t-109 35q-16 0 -33.5 -2t-27.5 -4l-10 -2v44l189 170h-185q-64 -1 -91 -33.5t-27 -94.5v-410h-63v413q0 85 38.5 131t138.5 47h267v-53l-177 -162q98 -4 147.5 -52t49.5 -136z" />
    <glyph glyph-name="uni0259.sc" horiz-adv-x="601" 
d="M548 295q0 -157 -57 -233.5t-191 -76.5t-190.5 78t-56.5 238h429q-1 127 -43 187t-139 60q-144 0 -172 -139h-67q15 99 72.5 148t166.5 49q134 0 191 -77t57 -234zM300 45q89 0 131 48.5t49 152.5h-359q8 -104 50 -152.5t129 -48.5z" />
    <glyph glyph-name="t.sc" horiz-adv-x="465" 
d="M197 0l3 532h-193v59h451v-59h-194l-3 -532h-64z" />
    <glyph glyph-name="tbar.sc" horiz-adv-x="465" 
d="M197 0l1 255h-98v51h99l1 226h-193v59h451v-59h-194l-1 -226h102v-51h-103l-1 -255h-64z" />
    <glyph glyph-name="tcaron.sc" horiz-adv-x="465" 
d="M372 824l-108 -134h-63l-106 134h64l73 -86l73 86h67zM197 0l3 532h-193v59h451v-59h-194l-3 -532h-64z" />
    <glyph glyph-name="uni0163.sc" horiz-adv-x="465" 
d="M315 -133q0 -47 -28.5 -65.5t-92.5 -18.5q-16 0 -31.5 1.5t-22.5 3.5l-7 2v43q0 -1 5.5 -2.5t16.5 -3t24 -1.5q39 0 55 9.5t16 36.5q0 46 -84 46h-6l37 83l3 531h-193v59h451v-59h-194l-3 -532h-3l-26 -58q83 -7 83 -75z" />
    <glyph glyph-name="uni021B.sc" horiz-adv-x="465" 
d="M197 0l3 532h-193v59h451v-59h-194l-3 -532h-64zM157 -221q16 37 29 91q5 22 8.5 44t3.5 34l1 11h61q-4 -46 -18 -93q-8 -25 -17 -46.5t-15 -31.5l-5 -9h-48z" />
    <glyph glyph-name="u.sc" horiz-adv-x="573" 
d="M514 289q0 -62 -5 -105.5t-19 -83t-39 -63.5t-66 -38t-99 -14q-71 0 -117 19.5t-69.5 62t-32 93.5t-8.5 129v302h64v-302q0 -129 34 -186t129 -57t129 57t34 186v302h65v-302z" />
    <glyph glyph-name="uacute.sc" horiz-adv-x="573" 
d="M256 690l73 136h71l-84 -136h-60zM514 289q0 -62 -5 -105.5t-19 -83t-39 -63.5t-66 -38t-99 -14q-71 0 -117 19.5t-69.5 62t-32 93.5t-8.5 129v302h64v-302q0 -129 34 -186t129 -57t129 57t34 186v302h65v-302z" />
    <glyph glyph-name="ubreve.sc" horiz-adv-x="573" 
d="M419 800q0 -38 -34 -74.5t-98 -36.5t-98 36.5t-34 74.5h58q0 -21 21.5 -43t52.5 -22t53 22t22 43h57zM514 289q0 -62 -5 -105.5t-19 -83t-39 -63.5t-66 -38t-99 -14q-71 0 -117 19.5t-69.5 62t-32 93.5t-8.5 129v302h64v-302q0 -129 34 -186t129 -57t129 57t34 186v302
h65v-302z" />
    <glyph glyph-name="ucircumflex.sc" horiz-adv-x="573" 
d="M426 690h-66l-73 87l-73 -87h-65l106 134h63zM514 289q0 -62 -5 -105.5t-19 -83t-39 -63.5t-66 -38t-99 -14q-71 0 -117 19.5t-69.5 62t-32 93.5t-8.5 129v302h64v-302q0 -129 34 -186t129 -57t129 57t34 186v302h65v-302z" />
    <glyph glyph-name="udieresis.sc" horiz-adv-x="573" 
d="M179 690v121h63v-121h-63zM331 690v121h63v-121h-63zM514 289q0 -62 -5 -105.5t-19 -83t-39 -63.5t-66 -38t-99 -14q-71 0 -117 19.5t-69.5 62t-32 93.5t-8.5 129v302h64v-302q0 -129 34 -186t129 -57t129 57t34 186v302h65v-302z" />
    <glyph glyph-name="uni1EE5.sc" horiz-adv-x="573" 
d="M514 289q0 -62 -5 -105.5t-19 -83t-39 -63.5t-66 -38t-99 -14q-71 0 -117 19.5t-69.5 62t-32 93.5t-8.5 129v302h64v-302q0 -129 34 -186t129 -57t129 57t34 186v302h65v-302zM254 -182v106h66v-106h-66z" />
    <glyph glyph-name="ugrave.sc" horiz-adv-x="573" 
d="M316 690h-60l-85 136h72zM514 289q0 -62 -5 -105.5t-19 -83t-39 -63.5t-66 -38t-99 -14q-71 0 -117 19.5t-69.5 62t-32 93.5t-8.5 129v302h64v-302q0 -129 34 -186t129 -57t129 57t34 186v302h65v-302z" />
    <glyph glyph-name="uhungarumlaut.sc" horiz-adv-x="573" 
d="M174 690l66 136h72l-79 -136h-59zM309 690l78 136h72l-90 -136h-60zM514 289q0 -62 -5 -105.5t-19 -83t-39 -63.5t-66 -38t-99 -14q-71 0 -117 19.5t-69.5 62t-32 93.5t-8.5 129v302h64v-302q0 -129 34 -186t129 -57t129 57t34 186v302h65v-302z" />
    <glyph glyph-name="umacron.sc" horiz-adv-x="573" 
d="M170 768h234v-50h-234v50zM514 289q0 -62 -5 -105.5t-19 -83t-39 -63.5t-66 -38t-99 -14q-71 0 -117 19.5t-69.5 62t-32 93.5t-8.5 129v302h64v-302q0 -129 34 -186t129 -57t129 57t34 186v302h65v-302z" />
    <glyph glyph-name="uogonek.sc" horiz-adv-x="573" 
d="M276 -92q0 40 38 78q-4 0 -14 -0.5t-14 -0.5q-71 0 -117 19.5t-69.5 62t-32 93.5t-8.5 129v302h64v-302q0 -129 34 -186t129 -57t129 57t34 186v302h65v-302q0 -109 -19.5 -175t-75.5 -99q-76 -44 -76 -93q0 -21 11.5 -31t29.5 -10q10 0 22 3.5t18 6.5l7 3v-43
q-23 -18 -72 -18q-41 0 -62 20.5t-21 54.5z" />
    <glyph glyph-name="uring.sc" horiz-adv-x="573" 
d="M375 764q0 -38 -23.5 -60.5t-63.5 -22.5q-41 0 -64.5 22.5t-23.5 60.5q0 37 23.5 59.5t64.5 22.5q40 0 63.5 -22.5t23.5 -59.5zM249 764q0 -19 10.5 -29.5t28.5 -10.5t28.5 11t10.5 29t-11 28.5t-28 10.5q-18 0 -28.5 -10.5t-10.5 -28.5zM514 289q0 -62 -5 -105.5
t-19 -83t-39 -63.5t-66 -38t-99 -14q-71 0 -117 19.5t-69.5 62t-32 93.5t-8.5 129v302h64v-302q0 -129 34 -186t129 -57t129 57t34 186v302h65v-302z" />
    <glyph glyph-name="utilde.sc" horiz-adv-x="573" 
d="M424 790q0 -100 -79 -100q-34 0 -62.5 24.5t-46.5 24.5q-37 0 -37 -48h-48q0 100 79 100q34 0 62 -24t47 -24q37 0 37 47h48zM514 289q0 -62 -5 -105.5t-19 -83t-39 -63.5t-66 -38t-99 -14q-71 0 -117 19.5t-69.5 62t-32 93.5t-8.5 129v302h64v-302q0 -129 34 -186
t129 -57t129 57t34 186v302h65v-302z" />
    <glyph glyph-name="v.sc" horiz-adv-x="515" 
d="M3 591h72l184 -538l183 538h70l-215 -591h-78z" />
    <glyph glyph-name="w.sc" horiz-adv-x="808" 
d="M404 524l-137 -524h-78l-177 591h73l145 -533l137 533h74l142 -531l142 531h70l-175 -591h-76z" />
    <glyph glyph-name="wacute.sc" horiz-adv-x="808" 
d="M374 690l73 136h71l-84 -136h-60zM404 524l-137 -524h-78l-177 591h73l145 -533l137 533h74l142 -531l142 531h70l-175 -591h-76z" />
    <glyph glyph-name="wcircumflex.sc" horiz-adv-x="808" 
d="M544 690h-66l-73 87l-73 -87h-65l106 134h63zM404 524l-137 -524h-78l-177 591h73l145 -533l137 533h74l142 -531l142 531h70l-175 -591h-76z" />
    <glyph glyph-name="wdieresis.sc" horiz-adv-x="808" 
d="M297 690v121h63v-121h-63zM449 690v121h63v-121h-63zM404 524l-137 -524h-78l-177 591h73l145 -533l137 533h74l142 -531l142 531h70l-175 -591h-76z" />
    <glyph glyph-name="wgrave.sc" horiz-adv-x="808" 
d="M434 690h-60l-85 136h72zM404 524l-137 -524h-78l-177 591h73l145 -533l137 533h74l142 -531l142 531h70l-175 -591h-76z" />
    <glyph glyph-name="x.sc" horiz-adv-x="524" 
d="M260 254l-174 -254h-74l208 294l-207 297h72l176 -256l176 256h74l-212 -296l207 -295h-72z" />
    <glyph glyph-name="y.sc" horiz-adv-x="503" 
d="M222 0v194l-213 397h74l171 -343l164 343h75l-207 -397v-194h-64z" />
    <glyph glyph-name="yacute.sc" horiz-adv-x="503" 
d="M220 690l73 136h71l-84 -136h-60zM222 0v194l-213 397h74l171 -343l164 343h75l-207 -397v-194h-64z" />
    <glyph glyph-name="ycircumflex.sc" horiz-adv-x="503" 
d="M390 690h-66l-73 87l-73 -87h-65l106 134h63zM222 0v194l-213 397h74l171 -343l164 343h75l-207 -397v-194h-64z" />
    <glyph glyph-name="ydieresis.sc" horiz-adv-x="503" 
d="M143 690v121h63v-121h-63zM295 690v121h63v-121h-63zM222 0v194l-213 397h74l171 -343l164 343h75l-207 -397v-194h-64z" />
    <glyph glyph-name="ygrave.sc" horiz-adv-x="503" 
d="M280 690h-60l-85 136h72zM222 0v194l-213 397h74l171 -343l164 343h75l-207 -397v-194h-64z" />
    <glyph glyph-name="uni0233.sc" horiz-adv-x="503" 
d="M134 768h234v-50h-234v50zM222 0v194l-213 397h74l171 -343l164 343h75l-207 -397v-194h-64z" />
    <glyph glyph-name="uni1EF9.sc" horiz-adv-x="503" 
d="M388 790q0 -100 -79 -100q-34 0 -62.5 24.5t-46.5 24.5q-37 0 -37 -48h-48q0 100 79 100q34 0 62 -24t47 -24q37 0 37 47h48zM222 0v194l-213 397h74l171 -343l164 343h75l-207 -397v-194h-64z" />
    <glyph glyph-name="z.sc" horiz-adv-x="455" 
d="M16 3v55l343 475h-328v55h403v-55l-346 -475h349v-55h-421z" />
    <glyph glyph-name="zacute.sc" horiz-adv-x="455" 
d="M202 690l73 136h71l-84 -136h-60zM16 3v55l343 475h-328v55h403v-55l-346 -475h349v-55h-421z" />
    <glyph glyph-name="zcaron.sc" horiz-adv-x="455" 
d="M372 824l-108 -134h-63l-106 134h64l73 -86l73 86h67zM16 3v55l343 475h-328v55h403v-55l-346 -475h349v-55h-421z" />
    <glyph glyph-name="zdotaccent.sc" horiz-adv-x="455" 
d="M200 698v113h67v-113h-67zM16 3v55l343 475h-328v55h403v-55l-346 -475h349v-55h-421z" />
    <glyph glyph-name="zero.osf" horiz-adv-x="592" 
d="M538 276q0 -146 -53 -216.5t-189 -70.5q-137 0 -190 70.5t-53 216.5q0 147 53.5 218.5t189.5 71.5q136 1 189 -71t53 -219zM121 276q0 -122 38 -176t137 -54q98 0 136.5 54t38.5 176t-38.5 177.5t-136.5 55.5q-99 0 -137 -55t-38 -178z" />
    <glyph glyph-name="one.osf" horiz-adv-x="326" 
d="M33 0v58h100v419l-93 -42v72l113 50h45v-499h106v-58h-271z" />
    <glyph glyph-name="two.osf" horiz-adv-x="490" 
d="M36 0v59q88 59 176 131q96 79 121 107q41 49 41 109q0 47 -33.5 75t-102.5 28q-65 0 -102 -31t-37 -82h-62q0 77 50.5 123t150.5 46q105 0 152.5 -42.5t47.5 -111.5q0 -36 -8 -64.5t-30 -57.5t-42 -49t-62 -58q-14 -13 -21 -19q-20 -18 -138 -110l306 3v-56h-407z" />
    <glyph glyph-name="three.osf" horiz-adv-x="522" 
d="M257 307q112 -5 170 -62.5t58 -160.5q0 -111 -57 -174t-180 -63q-115 0 -172 58t-57 143h66q0 -61 43 -100.5t119 -39.5q168 0 168 180q0 79 -49 122t-128 43l-89 -7v52l227 198h-322v62h416v-62z" />
    <glyph glyph-name="four.osf" horiz-adv-x="551" 
d="M379 -172v172h-363v56l330 502h97v-502h84v-56h-84v-172h-64zM379 56v456l-291 -456h291z" />
    <glyph glyph-name="five.osf" horiz-adv-x="547" 
d="M169 494l-38 -221q55 48 165 48q101 0 157 -66t56 -171q0 -108 -58.5 -171.5t-179.5 -63.5q-120 0 -180.5 56.5t-60.5 135.5h69q0 -56 45.5 -94t126.5 -38q82 0 126 45t44 130t-45 132t-116 47q-36 0 -65.5 -7.5t-47 -17.5t-29.5 -20.5t-16 -17.5l-5 -8h-64l60 365h358
v-60z" />
    <glyph glyph-name="six.osf" horiz-adv-x="591" 
d="M549 226q0 -237 -250 -237q-129 -1 -187 77t-58 245q0 219 57.5 311.5t187.5 92.5q61 0 106.5 -18.5t70 -48.5t36 -61.5t11.5 -64.5h-66q0 54 -38.5 93.5t-118.5 39.5q-85 0 -128 -61.5t-50 -217.5q65 92 198 92q116 0 172.5 -65.5t56.5 -176.5zM307 407q-41 0 -75.5 -13
t-56 -34t-34 -39t-20.5 -36q4 -126 47.5 -181.5t130.5 -55.5q182 0 182 180q0 179 -174 179z" />
    <glyph glyph-name="seven.osf" horiz-adv-x="458" 
d="M118 -144q0 99 27 201t66 177t78 135.5t66 92.5l27 31l-381 1v64h456v-66l-29.5 -33.5t-66 -90.5t-83.5 -140t-65.5 -173.5t-29.5 -198.5h-65z" />
    <glyph glyph-name="eight.osf" horiz-adv-x="581" 
d="M290 -11q-245 0 -245 203q0 48 15.5 85t38 57t42.5 30t35 11q-30 4 -69 41.5t-39 105.5q0 90 53 141.5t169 51.5t169.5 -51.5t53.5 -141.5q0 -37 -13.5 -67t-32.5 -46t-35.5 -24.5t-27.5 -9.5q14 -1 34 -11t43 -30t39 -57.5t16 -84.5q0 -203 -246 -203zM290 660
q-154 0 -154 -142q0 -55 40.5 -86.5t113.5 -31.5q74 0 114.5 31.5t40.5 86.5q0 142 -155 142zM290 344q-83 0 -128 -38.5t-45 -107.5q0 -148 173 -148q174 0 174 148q0 69 -45 107.5t-129 38.5z" />
    <glyph glyph-name="nine.osf" horiz-adv-x="592" 
d="M535 224q0 -216 -56.5 -300.5t-190.5 -84.5q-62 0 -109.5 18.5t-73 48t-38 61t-12.5 63.5h66q0 -51 42.5 -91.5t124.5 -40.5q43 0 72 11t53 39t36.5 79.5t16.5 129.5q-66 -93 -195 -93q-115 0 -169 70t-54 193q0 108 63 173.5t179 65.5q130 0 187.5 -79.5t57.5 -262.5z
M282 126q41 0 75.5 13t56 34t33.5 39t20 37q-3 141 -46 199t-131 58q-78 0 -126 -47.5t-48 -133.5q0 -97 42.5 -148t123.5 -51z" />
    <glyph glyph-name="zero.tf" horiz-adv-x="650" 
d="M583 350q0 -192 -59.5 -276.5t-199.5 -84.5q-141 0 -200.5 84.5t-59.5 276.5q0 193 59.5 278t200.5 85q140 0 199.5 -85t59.5 -278zM132 350q0 -165 45 -232t147 -67t146.5 67t44.5 232t-44.5 233t-146.5 68t-147 -68t-45 -233z" />
    <glyph glyph-name="one.tf" horiz-adv-x="652" 
d="M174 0v54h125v570l-132 -60v71l153 70h45v-651h122v-54h-313z" />
    <glyph glyph-name="two.tf" horiz-adv-x="651" 
d="M79 5v66q95 71 200 166q51 46 76 70.5t54 61t40.5 71t11.5 75.5q0 61 -39.5 98t-114.5 37q-70 0 -114 -41.5t-44 -105.5h-67q0 92 60 151t164 59q112 0 167.5 -54.5t55.5 -138.5q0 -41 -10.5 -78t-23.5 -63.5t-43 -61t-49.5 -54t-62.5 -59.5q-52 -48 -163 -140l361 3v-62
h-459z" />
    <glyph glyph-name="three.tf" horiz-adv-x="652" 
d="M309 448q117 -6 176 -63t59 -159q0 -237 -246 -237q-121 0 -179.5 57.5t-58.5 142.5h67q0 -60 44.5 -99.5t125.5 -39.5q176 0 176 180q0 79 -50.5 122t-134.5 43q-18 0 -40 -2t-36 -4l-13 -2v52l235 197h-339v63h434v-63z" />
    <glyph glyph-name="four.tf" horiz-adv-x="650" 
d="M399 0v156h-365v60l330 487h100v-487h84v-60h-84v-156h-65zM399 216v444l-291 -444h291z" />
    <glyph glyph-name="five.tf" horiz-adv-x="650" 
d="M198 631l-37 -218q57 48 173 48q107 0 164 -65.5t57 -171.5q0 -109 -60 -172t-186 -63t-188.5 56t-62.5 136h71q0 -57 46.5 -94.5t133.5 -37.5t132 44.5t45 130.5q0 85 -46 132t-123 47q-38 0 -69 -7.5t-49 -17.5t-30.5 -20.5t-16.5 -17.5l-5 -8h-65l60 363h375v-60z" />
    <glyph glyph-name="six.tf" horiz-adv-x="651" 
d="M578 226q0 -237 -252 -237q-136 -1 -195.5 76.5t-59.5 245.5q0 221 59 312.5t196 91.5q62 0 108 -18.5t70.5 -48.5t36 -61.5t11.5 -64.5h-68q0 54 -38.5 93.5t-118.5 39.5q-90 0 -133 -61t-52 -218q67 92 205 92q118 0 174.5 -65.5t56.5 -176.5zM334 407q-44 0 -80 -13
t-58.5 -34.5t-35 -39t-20.5 -36.5q4 -126 49 -181t137 -55q182 0 182 180q0 179 -174 179z" />
    <glyph glyph-name="seven.tf" horiz-adv-x="650" 
d="M213 0q0 98 27.5 199.5t66.5 176t77.5 135t65.5 91.5l28 31l-385 2v64h462v-66l-29.5 -33.5t-66 -90.5t-83.5 -139.5t-65.5 -172.5t-29.5 -197h-68z" />
    <glyph glyph-name="eight.tf" horiz-adv-x="650" 
d="M317 -11q-253 0 -253 203q0 48 15.5 85t38 57t42.5 30t35 11q-30 4 -69 41.5t-39 105.5q0 193 230 193t230 -193q0 -37 -13 -67t-32 -46t-35.5 -24.5t-27.5 -9.5q15 -1 34.5 -11.5t42.5 -30t38.5 -57t15.5 -84.5q0 -203 -253 -203zM317 660q-162 0 -162 -142
q0 -55 41.5 -86.5t120.5 -31.5t121 31.5t42 86.5q0 142 -163 142zM317 344q-88 0 -134.5 -38t-46.5 -108q0 -148 181 -148q91 0 136 36t45 112q0 70 -46 108t-135 38z" />
    <glyph glyph-name="nine.tf" horiz-adv-x="651" 
d="M572 373q0 -217 -57.5 -300.5t-199.5 -83.5q-66 0 -115.5 18.5t-76 48t-39 61t-12.5 63.5h68q0 -52 44 -92t131 -40q91 0 133.5 53.5t51.5 205.5q-68 -93 -202 -93q-233 0 -233 262q0 109 64.5 174t187.5 65q138 0 196.5 -79t58.5 -263zM309 275q44 0 80 13t58 35
t34.5 39.5t20.5 36.5q-3 141 -47.5 198.5t-137.5 57.5q-84 0 -133 -47t-49 -134q0 -97 44.5 -148t129.5 -51z" />
    <glyph glyph-name="zero.subs" horiz-adv-x="488" 
d="M434 60q0 -140 -43.5 -200.5t-146.5 -60.5q-104 0 -147.5 60.5t-43.5 200.5q0 139 44 200t147 61t146.5 -61t43.5 -200zM110 60q0 -116 31.5 -163t102.5 -47t102 47t31 163t-31 163t-102 47t-102.5 -47t-31.5 -163z" />
    <glyph glyph-name="one.subs" horiz-adv-x="230" 
d="M104 -193v441l-95 -45v61l113 52h37v-509h-55z" />
    <glyph glyph-name="two.subs" horiz-adv-x="376" 
d="M21 -188v50l141 126q37 32 54.5 49.5t38.5 43.5t29 51.5t8 56.5q0 42 -27.5 67.5t-79.5 25.5q-50 0 -80.5 -29t-30.5 -74h-56q0 68 43.5 111t122.5 43q84 0 124.5 -39t40.5 -102q0 -38 -8 -68t-30.5 -60t-38.5 -47.5t-54 -53.5l-110 -102l242 2v-51h-329z" />
    <glyph glyph-name="three.subs" horiz-adv-x="425" 
d="M219 131q164 -13 164 -167q0 -76 -43.5 -121t-136.5 -45q-89 0 -131 42t-42 107h56q0 -42 30.5 -69t86.5 -27q121 0 121 116q0 56 -34 88t-95 32l-61 -6v44l159 132l-238 -1v52h317v-50z" />
    <glyph glyph-name="four.subs" horiz-adv-x="426" 
d="M286 -193v110h-260v50l230 347h85v-347h60v-50h-60v-110h-55zM286 -33v307l-195 -307h195z" />
    <glyph glyph-name="five.subs" horiz-adv-x="446" 
d="M151 259l-27 -152q40 33 116 33q81 0 123 -47t42 -124q0 -79 -43.5 -125t-135.5 -46t-137 41t-45 100h58q0 -38 32 -65t92 -27q122 0 122 122q0 59 -32.5 91t-89.5 32q-38 0 -66 -12.5t-36.5 -22t-10.5 -15.5l-53 1l44 265h274v-50z" />
    <glyph glyph-name="six.subs" horiz-adv-x="473" 
d="M423 -31q0 -171 -184 -171q-100 0 -143 56t-43 177q0 159 43 225t144 66q86 0 125.5 -43t39.5 -98h-56q0 36 -27 63.5t-82 27.5q-61 0 -92 -41.5t-36 -147.5q46 62 144 62q86 0 126.5 -48t40.5 -128zM245 95q-95 0 -134 -83q3 -87 34 -125.5t95 -38.5q124 0 124 123
q0 124 -119 124z" />
    <glyph glyph-name="seven.subs" horiz-adv-x="362" 
d="M100 -193q0 70 19.5 142t47 125t55 96t46.5 65l20 22l-273 -1v55h337v-55l-21 -24.5t-46.5 -64.5t-59 -99t-46.5 -122t-21 -139h-58z" />
    <glyph glyph-name="eight.subs" horiz-adv-x="471" 
d="M238 -201q-186 0 -186 147q0 64 31 97t60 34q-22 2 -48 29.5t-26 77.5q0 138 169 138q167 0 167 -138q0 -51 -26 -78t-49 -29q29 -1 60.5 -34.5t31.5 -96.5q0 -147 -184 -147zM238 277q-112 0 -112 -98q0 -40 26.5 -60t85.5 -20q111 0 111 80q0 98 -111 98zM238 52
q-66 0 -96 -25t-30 -75q0 -103 126 -103q124 0 124 103q0 50 -29.5 75t-94.5 25z" />
    <glyph glyph-name="nine.subs" horiz-adv-x="473" 
d="M423 77q0 -157 -42 -218t-145 -61q-92 0 -135 43.5t-43 96.5h57q0 -36 30 -63t91 -27q62 0 92 36.5t36 137.5q-47 -61 -142 -61q-169 0 -169 189q0 172 184 172q101 0 143.5 -57t42.5 -188zM231 12q95 0 135 81q-2 99 -33 139t-96 40q-125 0 -125 -124q0 -66 30.5 -101
t88.5 -35z" />
    <glyph glyph-name="zero.dnom" horiz-adv-x="488" 
d="M434 253q0 -140 -43.5 -200.5t-146.5 -60.5q-104 0 -147.5 60.5t-43.5 200.5q0 139 44 200t147 61t146.5 -61t43.5 -200zM110 253q0 -116 31.5 -163t102.5 -47t102 47t31 163t-31 163t-102 47t-102.5 -47t-31.5 -163z" />
    <glyph glyph-name="one.dnom" horiz-adv-x="230" 
d="M104 0v441l-95 -45v61l113 52h37v-509h-55z" />
    <glyph glyph-name="two.dnom" horiz-adv-x="376" 
d="M21 5v50l141 126q37 32 54.5 49.5t38.5 43.5t29 51.5t8 56.5q0 42 -27.5 67.5t-79.5 25.5q-50 0 -80.5 -29t-30.5 -74h-56q0 68 43.5 111t122.5 43q84 0 124.5 -39t40.5 -102q0 -38 -8 -68t-30.5 -60t-38.5 -47.5t-54 -53.5l-110 -102l242 2v-51h-329z" />
    <glyph glyph-name="three.dnom" horiz-adv-x="425" 
d="M219 324q164 -13 164 -167q0 -76 -43.5 -121t-136.5 -45q-89 0 -131 42.5t-42 106.5h56q0 -42 30.5 -69t86.5 -27q121 0 121 116q0 56 -34 88t-95 32l-61 -6v44l159 132l-238 -1v52h317v-50z" />
    <glyph glyph-name="four.dnom" horiz-adv-x="426" 
d="M286 0v110h-260v50l230 347h85v-347h60v-50h-60v-110h-55zM286 160v307l-195 -307h195z" />
    <glyph glyph-name="five.dnom" horiz-adv-x="446" 
d="M151 452l-27 -152q40 33 116 33q81 0 123 -47t42 -124q0 -79 -43.5 -125t-135.5 -46t-137 41t-45 100h58q0 -38 32 -65t92 -27q122 0 122 122q0 59 -32.5 91t-89.5 32q-38 0 -66 -12.5t-36.5 -22t-10.5 -15.5l-53 1l43 265h275v-50z" />
    <glyph glyph-name="six.dnom" horiz-adv-x="473" 
d="M423 162q0 -171 -184 -171q-100 0 -143 56t-43 177q0 159 43 225t144 66q86 0 125.5 -43t39.5 -98h-56q0 36 -27 63.5t-82 27.5q-61 0 -92 -41.5t-36 -147.5q46 62 144 62q86 0 126.5 -48t40.5 -128zM245 288q-95 0 -134 -83q3 -88 34 -126t95 -38q124 0 124 123
q0 124 -119 124z" />
    <glyph glyph-name="seven.dnom" horiz-adv-x="362" 
d="M100 0q0 70 19.5 142t47 125t55 96t46.5 65l20 22l-273 -1v55h337v-55l-21 -24.5t-46.5 -64.5t-59 -99t-46.5 -122t-21 -139h-58z" />
    <glyph glyph-name="eight.dnom" horiz-adv-x="471" 
d="M238 -8q-186 0 -186 147q0 64 31 97t60 34q-22 2 -48 29.5t-26 77.5q0 138 169 138q167 0 167 -138q0 -51 -26 -78t-49 -29q29 -1 60.5 -34.5t31.5 -96.5q0 -147 -184 -147zM238 470q-112 0 -112 -98q0 -40 26.5 -60t85.5 -20q111 0 111 80q0 98 -111 98zM238 245
q-66 0 -96 -25t-30 -75q0 -103 126 -103q124 0 124 103q0 50 -29.5 75t-94.5 25z" />
    <glyph glyph-name="nine.dnom" horiz-adv-x="473" 
d="M423 270q0 -157 -42 -218t-145 -61q-92 0 -135 43.5t-43 96.5h57q0 -36 30 -63t91 -27q62 0 92 36.5t36 137.5q-47 -61 -142 -61q-169 0 -169 189q0 172 184 172q101 0 143.5 -57t42.5 -188zM231 205q95 0 135 81q-2 99 -33 139t-96 40q-125 0 -125 -124q0 -66 30.5 -101
t88.5 -35z" />
    <glyph glyph-name="zero.numr" horiz-adv-x="488" 
d="M434 506q0 -140 -43.5 -200.5t-146.5 -60.5q-104 0 -147.5 60.5t-43.5 200.5q0 139 44 200t147 61t146.5 -61t43.5 -200zM110 506q0 -116 31.5 -163t102.5 -47t102 47t31 163t-31 163t-102 47t-102.5 -47t-31.5 -163z" />
    <glyph glyph-name="one.numr" horiz-adv-x="230" 
d="M104 253v441l-95 -45v61l113 52h37v-509h-55z" />
    <glyph glyph-name="two.numr" horiz-adv-x="376" 
d="M21 258v50l141 126q37 32 54.5 49.5t38.5 43.5t29 51.5t8 56.5q0 42 -27.5 67.5t-79.5 25.5q-50 0 -80.5 -29t-30.5 -74h-56q0 68 43.5 111t122.5 43q84 0 124.5 -39t40.5 -102q0 -38 -8 -68t-30.5 -60t-38.5 -47.5t-54 -53.5l-110 -102l242 2v-51h-329z" />
    <glyph glyph-name="three.numr" horiz-adv-x="425" 
d="M219 577q164 -13 164 -167q0 -76 -43.5 -121t-136.5 -45q-89 0 -131 42t-42 107h56q0 -42 30.5 -69t86.5 -27q121 0 121 116q0 56 -34 88t-95 32l-61 -6v44l159 132l-238 -1v52h317v-50z" />
    <glyph glyph-name="four.numr" horiz-adv-x="426" 
d="M286 253v110h-260v50l230 347h85v-347h60v-50h-60v-110h-55zM286 413v307l-195 -307h195z" />
    <glyph glyph-name="five.numr" horiz-adv-x="446" 
d="M151 705l-27 -152q40 33 116 33q81 0 123 -47t42 -124q0 -79 -43.5 -125t-135.5 -46t-137 41t-45 100h58q0 -38 32 -65t92 -27q122 0 122 122q0 59 -32.5 91t-89.5 32q-38 0 -66 -12.5t-36.5 -22t-10.5 -15.5l-53 1l43 265h275v-50z" />
    <glyph glyph-name="six.numr" horiz-adv-x="473" 
d="M423 415q0 -171 -184 -171q-100 0 -143 56t-43 177q0 159 43 225t144 66q86 0 125.5 -43t39.5 -98h-56q0 36 -27 63.5t-82 27.5q-61 0 -92 -41.5t-36 -147.5q46 62 144 62q86 0 126.5 -48t40.5 -128zM245 541q-95 0 -134 -83q3 -88 34 -126t95 -38q124 0 124 123
q0 124 -119 124z" />
    <glyph glyph-name="seven.numr" horiz-adv-x="362" 
d="M100 253q0 70 19.5 142t47 125t55 96t46.5 65l20 22l-273 -1v55h337v-55l-21 -24.5t-46.5 -64.5t-59 -99t-46.5 -122t-21 -139h-58z" />
    <glyph glyph-name="eight.numr" horiz-adv-x="471" 
d="M238 245q-186 0 -186 147q0 64 31 97t60 34q-22 2 -48 29.5t-26 77.5q0 138 169 138q167 0 167 -138q0 -51 -26 -78t-49 -29q29 -1 60.5 -34.5t31.5 -96.5q0 -147 -184 -147zM238 723q-112 0 -112 -98q0 -40 26.5 -60t85.5 -20q111 0 111 80q0 98 -111 98zM238 498
q-66 0 -96 -25t-30 -75q0 -103 126 -103q124 0 124 103q0 50 -29.5 75t-94.5 25z" />
    <glyph glyph-name="nine.numr" horiz-adv-x="473" 
d="M423 523q0 -157 -42 -218t-145 -61q-92 0 -135 43.5t-43 96.5h57q0 -36 30 -63t91 -27q62 0 92 36.5t36 137.5q-47 -61 -142 -61q-169 0 -169 189q0 172 184 172q101 0 143.5 -57t42.5 -188zM231 458q95 0 135 81q-2 99 -33 139t-96 40q-125 0 -125 -124q0 -66 30.5 -101
t88.5 -35z" />
    <glyph glyph-name="zero.sc" horiz-adv-x="530" 
d="M486 292q0 -161 -50.5 -231t-169.5 -70q-120 0 -171 70t-51 231q0 162 51 232.5t171 70.5q119 0 169.5 -71t50.5 -232zM109 292q0 -135 36.5 -189t120.5 -54q82 0 118.5 54.5t36.5 188.5q0 135 -36.5 190.5t-118.5 55.5q-83 0 -120 -55.5t-37 -190.5z" />
    <glyph glyph-name="one.sc" horiz-adv-x="266" 
d="M114 0v514l-111 -49v65l131 59h42v-589h-62z" />
    <glyph glyph-name="two.sc" horiz-adv-x="443" 
d="M18 4v61q80 58 167 135q43 37 64 57t45.5 50t34.5 58t10 61q0 50 -32.5 80t-94.5 30q-57 0 -93 -34t-36 -86h-63q0 79 50.5 129t140.5 50q97 0 144.5 -46t47.5 -117q0 -34 -9 -65t-19.5 -53t-35.5 -51.5t-41 -45l-52 -49.5q-31 -29 -127 -109l290 2v-57h-391z" />
    <glyph glyph-name="three.sc" horiz-adv-x="466" 
d="M234 374q193 -13 193 -186q0 -198 -210 -198q-104 0 -153.5 49t-49.5 122h63q0 -49 36.5 -81t102.5 -32q144 0 144 145q0 64 -41.5 98.5t-111.5 34.5l-74 -6v47l194 159l-284 -2v59h371v-56z" />
    <glyph glyph-name="four.sc" horiz-adv-x="461" 
d="M312 0v127h-305v55l274 405h93v-405h70v-55h-70v-127h-62zM312 182v365l-237 -365h237z" />
    <glyph glyph-name="five.sc" horiz-adv-x="488" 
d="M157 523l-31 -178q47 40 144 40q90 0 138 -55t48 -143q0 -91 -50.5 -144t-158.5 -53t-160.5 47.5t-52.5 114.5h66q0 -45 38 -75.5t109 -30.5q145 0 145 142q0 69 -37.5 106.5t-99.5 37.5q-30 0 -55 -6t-39.5 -13t-26 -16.5t-15 -14t-5.5 -8.5h-61l52 306h319v-56z" />
    <glyph glyph-name="six.sc" horiz-adv-x="513" 
d="M477 188q0 -198 -215 -198q-116 0 -166.5 65t-50.5 205q0 184 49.5 260.5t167.5 76.5q101 0 147 -50t46 -113h-63q0 44 -31.5 76t-97.5 32q-73 0 -109.5 -49.5t-42.5 -176.5q54 74 170 74q100 0 148 -55t48 -147zM268 335q-111 0 -158 -97q4 -102 41 -147.5t111 -45.5
q149 0 149 145t-143 145z" />
    <glyph glyph-name="seven.sc" horiz-adv-x="398" 
d="M102 0q0 81 22.5 164.5t55 145t65 111.5t55.5 76l22 26h-321v60h394v-62l-24.5 -28t-55 -75t-69.5 -115t-54.5 -141.5t-24.5 -161.5h-65z" />
    <glyph glyph-name="eight.sc" horiz-adv-x="507" 
d="M253 -9q-215 0 -215 170q0 39 12.5 70t31.5 47.5t35.5 25t28.5 9.5q-24 3 -56.5 34.5t-32.5 88.5q0 161 196 161q197 0 197 -161q0 -57 -32.5 -88.5t-57.5 -34.5q32 -4 70.5 -41.5t38.5 -110.5q0 -170 -216 -170zM253 547q-133 0 -133 -116q0 -44 34 -69.5t99 -25.5
t99.5 25.5t34.5 69.5q0 116 -134 116zM253 286q-72 0 -110 -31t-38 -87q0 -121 148 -121q149 0 149 121q0 56 -38.5 87t-110.5 31z" />
    <glyph glyph-name="nine.sc" horiz-adv-x="516" 
d="M471 312q0 -182 -49 -252t-170 -70q-107 0 -157 50t-50 112h64q0 -43 36 -75t107 -32q74 0 110 43.5t42 164.5q-53 -74 -167 -74q-198 0 -198 218q0 91 54.5 145.5t160.5 54.5q118 0 167.5 -66t49.5 -219zM247 235q111 0 159 98q-2 114 -39 161.5t-114 47.5
q-68 0 -108 -38.5t-40 -108.5q0 -78 36 -119t106 -41z" />
    <glyph glyph-name="exclamdown.case" horiz-adv-x="231" 
d="M83 600v108h66v-108h-66zM83 0l1 545h63l2 -545h-66z" />
    <glyph glyph-name="questiondown.case" horiz-adv-x="512" 
d="M310 708v-104h-66v104h66zM244 549h66v-39q0 -52 -17 -88t-41 -56.5l-47.5 -40.5t-40.5 -52.5t-17 -78.5q0 -142 130 -142q131 0 131 151h65q0 -209 -195 -209q-103 0 -152 52t-49 144q0 52 17 89t41 58l48.5 41.5t42 53t18.5 78.5v39z" />
    <glyph glyph-name="braceleft.case" horiz-adv-x="392" 
d="M163 605q0 50 6 77t27.5 47t59.5 26.5t104 6.5v-52q-85 0 -109 -23t-24 -89v-174q-1 -61 -50 -77l3 -1l5 -2.5t7 -4t7.5 -5.5t8 -7.5t7.5 -10.5l6 -12.5t4.5 -15.5t1.5 -19v-176q0 -64 24 -86.5t109 -22.5v-52q-66 0 -104 7t-59.5 27t-27.5 47.5t-6 77.5v176
q0 32 -16.5 44t-70.5 12v48q54 0 70.5 11.5t16.5 43.5v179z" />
    <glyph glyph-name="braceright.case" horiz-adv-x="392" 
d="M227 89q0 -50 -6 -77t-27.5 -47t-59.5 -26.5t-104 -6.5v52q85 0 109 22.5t24 88.5v175q0 27 12.5 46t21 24t16.5 7q-6 1 -15.5 6t-22 24.5t-12.5 47.5v176q0 64 -24 86.5t-109 22.5v52q66 0 104 -7t59.5 -27t27.5 -47.5t6 -77.5v-176q0 -32 16.5 -44t70.5 -12v-48
q-54 0 -70.5 -11.5t-16.5 -43.5v-179z" />
    <glyph glyph-name="bracketleft.case" horiz-adv-x="338" 
d="M100 -58v818h206v-49h-146v-720h146v-49h-206z" />
    <glyph glyph-name="bracketright.case" horiz-adv-x="336" 
d="M238 -58h-206v49h146v720h-146v49h206v-818z" />
    <glyph glyph-name="parenleft.case" horiz-adv-x="292" 
d="M106 345q0 82 8 155t19 118.5t22 79.5t19 48l8 14h68l-7 -16q-7 -15 -18.5 -49.5t-22.5 -80.5t-19 -118t-8 -151t8 -150t19.5 -115.5t23 -77.5t19.5 -47l8 -14h-69q-3 4 -8.5 13.5t-19 44.5t-23.5 77t-18.5 114.5t-8.5 154.5z" />
    <glyph glyph-name="parenright.case" horiz-adv-x="292" 
d="M110 760q3 -5 8 -15t18.5 -46.5t23.5 -80t18 -117.5t8 -156t-8 -154t-19.5 -116t-23 -76t-19.5 -45l-8 -13h-68l7 14q7 14 19 47.5t23 77.5t19 115t8 150q0 126 -19 229.5t-38 144.5l-19 41h70z" />
    <glyph glyph-name="guillemotleft.case" horiz-adv-x="487" 
d="M189 164l-117 149v18l117 156h76l-129 -166l129 -157h-76zM341 164l-117 149v18l117 156h76l-129 -166l129 -157h-76z" />
    <glyph glyph-name="guillemotright.case" horiz-adv-x="487" 
d="M147 164h-77l129 157l-129 166h77l117 -156v-18zM298 164h-76l128 157l-128 166h76l117 -156v-18z" />
    <glyph glyph-name="guilsinglleft.case" horiz-adv-x="335" 
d="M189 164l-117 149v18l117 156h76l-129 -166l129 -157h-76z" />
    <glyph glyph-name="guilsinglright.case" horiz-adv-x="336" 
d="M147 164h-77l129 157l-129 166h77l117 -156v-18z" />
    <glyph glyph-name="asterisk.sc" horiz-adv-x="369" 
d="M60 557l15 45l88 -32l-3 92h48l-2 -92l87 32l15 -45l-88 -26l64 -75l-39 -32l-61 79l-60 -79l-39 32l64 75z" />
    <glyph glyph-name="backslash.sc" horiz-adv-x="421" 
d="M377 -60h-62l-270 724h61z" />
    <glyph glyph-name="braceleft.sc" horiz-adv-x="386" 
d="M163 519q0 66 13 97t53.5 45.5t126.5 14.5v-52q-85 0 -109 -22.5t-24 -88.5l-1 -135q0 -27 -12 -46.5t-20.5 -24t-16.5 -7.5q3 -1 7 -2.5t12 -7t14.5 -13.5t11.5 -22.5t5 -31.5v-136q0 -65 24 -87.5t109 -22.5v-51q-65 0 -102 7t-58 27t-27 47.5t-6 77.5v136
q0 32 -16.5 44t-70.5 12v48q54 0 70.5 11.5t16.5 43.5v139z" />
    <glyph glyph-name="braceright.sc" horiz-adv-x="386" 
d="M223 82q0 -66 -13 -96.5t-53.5 -45t-126.5 -14.5v51q85 0 109 23t24 89v135q0 27 12.5 46t21 24t16.5 7l-7.5 2.5t-12.5 7t-14 13.5t-11 22.5t-5 32.5v136q0 65 -24 87t-109 22v52q65 0 102 -7t58 -27t27 -47.5t6 -77.5v-136q0 -32 16.5 -44t70.5 -12v-49
q-54 0 -70.5 -11.5t-16.5 -43.5v-139z" />
    <glyph glyph-name="bracketleft.sc" horiz-adv-x="336" 
d="M100 -73v739h202v-49h-146v-640h146v-50h-202z" />
    <glyph glyph-name="bracketright.sc" horiz-adv-x="336" 
d="M234 -73h-202v50h146v640h-146v49h202v-739z" />
    <glyph glyph-name="uni2016.sc" horiz-adv-x="385" 
d="M83 -82v764h50v-764h-50zM252 -82v764h51v-764h-51z" />
    <glyph glyph-name="exclam.sc" horiz-adv-x="231" 
d="M84 163l-1 429h66l-2 -429h-63zM83 0v108h66v-108h-66z" />
    <glyph glyph-name="exclamdown.sc" horiz-adv-x="231" 
d="M83 485v107h66v-107h-66zM83 0l1 430h63l2 -430h-66z" />
    <glyph glyph-name="numbersign.sc" horiz-adv-x="607" 
d="M100 0l34 168h-86v48h95l34 168h-90v49h100l31 153h49l-31 -153h155l31 153h49l-31 -153h87v-49h-97l-34 -168h91v-48h-100l-34 -168h-49l34 168h-155l-34 -168h-49zM192 216h155l34 168h-155z" />
    <glyph glyph-name="parenleft.sc" horiz-adv-x="279" 
d="M106 275q0 117 19 212.5t38 132.5l19 38h62q-3 -5 -8 -15.5t-18 -46.5t-23 -77t-18 -107t-8 -137q0 -112 19.5 -205t38.5 -130l19 -38h-64l-8 14t-18.5 42t-23.5 72.5t-18 105.5t-8 139z" />
    <glyph glyph-name="parenright.sc" horiz-adv-x="279" 
d="M104 658q3 -5 8 -14.5t18.5 -44.5t23.5 -75.5t18 -107.5t8 -141q0 -73 -8.5 -138.5t-20 -106.5t-23.5 -71.5t-20 -43.5l-9 -13h-61l8.5 14.5t19 44.5t23.5 74.5t18.5 104.5t8.5 135q0 112 -19 207.5t-38 135.5l-19 40h64z" />
    <glyph glyph-name="question.sc" horiz-adv-x="473" 
d="M250 154h-62v38q1 36 16.5 65t37.5 49l44 39.5t37 47t15 61.5q0 45 -31.5 75t-86.5 30q-57 0 -89 -31t-32 -82h-61q0 73 45.5 121t135.5 48q91 0 138 -45.5t47 -111.5q0 -40 -15.5 -71.5t-38 -52.5l-45 -40.5t-38 -45t-16.5 -56.5zM188 0v100h62v-100h-62z" />
    <glyph glyph-name="questiondown.sc" horiz-adv-x="478" 
d="M290 593v-100h-63v100h63zM227 439h63l-1 -38q-1 -36 -16.5 -65.5t-37.5 -49l-43.5 -39.5t-37 -47t-15.5 -61q0 -45 32 -75.5t87 -30.5q57 0 89 31.5t32 82.5h61q0 -74 -45.5 -121.5t-135.5 -47.5q-91 0 -138.5 45t-47.5 112q0 40 15.5 71.5t38 52.5l45 40.5t38.5 45
t17 56.5v38z" />
    <glyph glyph-name="quotedbl.sc" horiz-adv-x="278" 
d="M55 475l-11 185h73l-11 -185h-51zM173 475l-11 185h72l-11 -185h-50z" />
    <glyph glyph-name="quotedblleft.sc" horiz-adv-x="300" 
d="M50 442q-1 37 17 107q8 32 20 60.5t19 40.5l8 12h50q-22 -47 -37 -117q-7 -32 -10.5 -58t-3.5 -35v-10h-63zM173 442q0 37 18 107q8 32 20 60.5t19 40.5l8 12h49q-22 -47 -37 -117q-7 -32 -10 -57.5t-3 -35.5v-10h-64z" />
    <glyph glyph-name="quotedblright.sc" horiz-adv-x="300" 
d="M30 442q22 47 37 118q7 32 10 57.5t3 34.5v10h64q0 -37 -18 -107q-8 -32 -20 -60.5t-20 -40.5l-7 -12h-49zM153 442q23 47 38 118q7 32 10 57.5t3 34.5v10h63q1 -37 -17 -107q-8 -32 -20 -60.5t-20 -40.5l-7 -12h-50z" />
    <glyph glyph-name="quoteleft.sc" horiz-adv-x="177" 
d="M50 442q-1 37 17 107q8 32 20 60.5t19 40.5l8 12h50q-22 -47 -37 -117q-7 -32 -10.5 -58t-3.5 -35v-10h-63z" />
    <glyph glyph-name="quoteright.sc" horiz-adv-x="177" 
d="M30 442q22 47 37 118q7 32 10 57.5t3 34.5v10h64q0 -37 -18 -107q-8 -32 -20 -60.5t-20 -40.5l-7 -12h-49z" />
    <glyph glyph-name="quotesingle.sc" horiz-adv-x="161" 
d="M55 475l-11 185h73l-11 -185h-51z" />
    <glyph glyph-name="slash.sc" horiz-adv-x="412" 
d="M45 -73l261 723h62l-262 -723h-61z" />
    <glyph glyph-name="paragraph.alt" horiz-adv-x="564" 
d="M286 0v310q-139 2 -194.5 49.5t-55.5 175.5t56 176.5t194 48.5h196v-760h-50v712h-96v-712h-50z" />
    <glyph glyph-name="registered.alt" horiz-adv-x="489" 
d="M442 531q0 -94 -46 -151t-152 -57q-104 0 -150.5 57.5t-46.5 150.5q0 94 46.5 152.5t150.5 58.5q106 0 152 -58.5t46 -152.5zM82 531q0 -80 37.5 -129t124.5 -49t125 49t38 129q0 181 -163 181q-162 0 -162 -181zM165 418v226h86q44 0 64 -15.5t20 -55.5q0 -57 -47 -66
l45 -89h-34l-42 86h-59v-86h-33zM198 618v-88h51q17 0 27 2t18 12t8 29q0 27 -13.5 36t-39.5 9h-51z" />
    <glyph glyph-name="at.case" horiz-adv-x="858" 
d="M604 -33q-76 -28 -177 -28q-102 0 -176 30t-116.5 86t-62 127t-19.5 161q0 89 20 161t62.5 130.5t116.5 90.5t175 32q378 0 378 -414q0 -143 -32.5 -202.5t-106.5 -59.5q-92 0 -111 109q-45 -68 -149 -68q-171 0 -171 221q0 224 171 224q88 0 146 -65l3 55h50v-300
q0 -133 68 -133q26 0 42 16.5t26 66t10 136.5q0 366 -324 366q-86 0 -149 -27.5t-100 -78t-54 -115t-17 -145.5q0 -355 321 -355q111 0 176 32v-53zM414 171q101 0 137 79v190q-45 78 -137 78q-61 0 -91.5 -46t-30.5 -129q0 -172 122 -172z" />
    <glyph glyph-name="section.sups" horiz-adv-x="325" 
d="M265 547q0 -32 -25 -55q23 -18 23 -50q0 -70 -102 -70q-101 0 -101 80h39q0 -50 61 -50q29 0 45 11t16 28q0 23 -24.5 34.5t-54.5 15t-54.5 20.5t-24.5 49q0 34 25 57q-22 17 -22 48q0 69 96 69t96 -76h-40q0 45 -55 45q-56 0 -56 -38q0 -18 16.5 -27.5t39.5 -13.5
t46 -10t39.5 -22.5t16.5 -44.5zM105 560q0 -17 12.5 -25.5t46.5 -15.5t42 -10q17 13 17 37q0 14 -10.5 23.5t-22 13t-34.5 9t-34 8.5q-17 -17 -17 -40z" />
    <glyph glyph-name="dagger.sups" horiz-adv-x="306" 
d="M60 648h69v83h47v-83h70v-42h-70v-234h-47v234h-69v42z" />
    <glyph glyph-name="daggerdbl.sups" horiz-adv-x="306" 
d="M60 648h69v83h47v-83h70v-42h-70v-110h70v-42h-70v-82h-47v82h-69v42h69v110h-69v42z" />
    <glyph glyph-name="ampersand.sc" horiz-adv-x="601" 
d="M301 606q158 0 158 -151h-59q0 103 -99 103q-106 0 -106 -98q0 -22 4.5 -40t21 -41t25 -33.5t42 -44.5l45.5 -47l116 -122q24 63 24 172h55q0 -135 -41 -211l76 -78v-17h-60l-48 50q-62 -63 -189 -63q-204 0 -204 183q0 76 37 116.5t82 55.5q-45 59 -45 124
q0 142 165 142zM211 305q-92 -34 -92 -137q0 -137 158 -137q99 0 144 52l-147 157z" />
    <glyph glyph-name="degree.sc" horiz-adv-x="317" 
d="M257 532q0 -108 -98 -108q-99 0 -99 108q0 109 99 109q98 0 98 -109zM103 532q0 -70 56 -70t56 70q0 71 -56 71t-56 -71z" />
    <glyph glyph-name="bar.sc" horiz-adv-x="215" 
d="M83 -82v764h50v-764h-50z" />
    <glyph glyph-name="brokenbar.sc" horiz-adv-x="215" 
d="M83 391v291h50v-291h-50zM133 249v-331h-50v331h50z" />
    <glyph glyph-name="cent.sc" horiz-adv-x="470" 
d="M211 -17v74q-91 8 -129 66t-38 165t38 166t129 67v74h57v-73q160 -11 162 -170h-62q-1 105 -100 117v-360q99 13 100 103h62q-3 -144 -162 -155v-74h-57zM108 288q0 -83 24 -126t79 -52v358q-103 -16 -103 -180z" />
    <glyph glyph-name="dollar.sc" horiz-adv-x="472" 
d="M209 -42v74q-168 16 -168 173h54q0 -109 114 -122v207q-37 9 -61.5 18.5t-50.5 26t-38.5 43t-12.5 62.5q2 133 163 143v60h56v-61q86 -7 122 -46.5t36 -109.5h-57q0 43 -20.5 71t-80.5 35v-203q39 -10 63 -19t52 -26t41.5 -43.5t13.5 -62.5q0 -138 -170 -147v-73h-56z
M102 441q0 -39 27.5 -60.5t79.5 -36.5v189q-107 -8 -107 -92zM378 176q0 41 -29 63t-84 37v-195q113 6 113 95z" />
    <glyph glyph-name="Euro.sc" horiz-adv-x="523" 
d="M160 200q11 -76 44.5 -111.5t98.5 -35.5q55 0 87 26t35 77h56q-8 -155 -180 -155q-99 0 -146.5 49t-59.5 150h-71v45h67q-1 15 -1 48q0 26 1 39h-67v45h70q11 106 58.5 158.5t148.5 52.5q88 0 134 -43t48 -123h-56q-2 55 -34.5 84t-89.5 29q-66 0 -100.5 -38.5
t-44.5 -119.5h189v-45h-193v-39q0 -33 1 -48h192v-45h-187z" />
    <glyph glyph-name="percent.sc" horiz-adv-x="652" 
d="M297 452q0 -70 -31 -107t-103 -37q-134 0 -134 144q0 148 134 148t134 -148zM93 0l388 589h62l-388 -589h-62zM78 452q0 -51 20 -76.5t65 -25.5q46 0 66 25t20 77q0 53 -20 79.5t-66 26.5q-85 0 -85 -106zM605 132q0 -70 -31 -107t-102 -37q-134 0 -134 144
q0 148 134 148q72 0 102.5 -38t30.5 -110zM386 132q0 -102 86 -102q45 0 65 25.5t20 76.5q0 107 -85 107q-86 0 -86 -107z" />
    <glyph glyph-name="perthousand.sc" horiz-adv-x="937" 
d="M297 452q0 -70 -31 -107t-103 -37q-134 0 -134 144q0 148 134 148t134 -148zM93 0l388 589h62l-388 -589h-62zM78 452q0 -51 20 -76.5t65 -25.5q46 0 66 25t20 77q0 53 -20 79.5t-66 26.5q-85 0 -85 -106zM605 132q0 -70 -31 -107t-102 -37q-134 0 -134 144
q0 148 134 148q72 0 102.5 -38t30.5 -110zM902 132q0 -70 -31 -107t-102 -37q-135 0 -135 144q0 148 135 148q72 0 102.5 -38t30.5 -110zM386 132q0 -102 86 -102q45 0 65 25.5t20 76.5q0 107 -85 107q-86 0 -86 -107zM682 132q0 -102 87 -102q45 0 65 25.5t20 76.5
q0 107 -85 107q-87 0 -87 -107z" />
    <glyph glyph-name="uni20BD.sc" horiz-adv-x="538" 
d="M106 0v154h-82v47h82v69h-82v52l82 -1v275h174q120 0 174 -36t54 -128q0 -91 -53.5 -126.5t-174.5 -35.5h-110v-69h154v-47h-154v-154h-64zM170 545v-224h116q76 0 116 22.5t40 89.5t-40 89.5t-115 22.5h-117z" />
    <glyph glyph-name="sterling.sc" horiz-adv-x="452" 
d="M179 219q4 -32 4 -53q0 -82 -58 -117l294 3v-55h-391v52q5 1 11.5 3t22 10t27 19t21 31.5t9.5 46.5q0 30 -5 60h-90v48h80q-4 14 -15.5 49t-17 61.5t-5.5 56.5q0 73 47 116.5t133 43.5q88 0 134.5 -45.5t46.5 -126.5h-63q0 55 -31.5 86t-84.5 31t-84.5 -30.5t-31.5 -85.5
q0 -25 5.5 -49.5t16.5 -56.5t16 -50h135v-48h-126z" />
    <glyph glyph-name="yen.sc" horiz-adv-x="477" 
d="M209 0v157h-94v46h94v50h-94v45h75l-181 294h72l159 -276l151 276h76l-178 -294h73v-45h-91v-50h91v-46h-91v-157h-62z" />
    <glyph glyph-name="caroncomb.alt" 
d="M-183 617l49 143h59l-65 -143h-43z" />
    <glyph glyph-name="uni0308.case" 
d="M-274 764v122h67v-122h-67zM-119 764v122h66v-122h-66z" />
    <glyph glyph-name="uni0307.case" 
d="M-123 764v122h67v-122h-67z" />
    <glyph glyph-name="gravecomb.case" 
d="M-53 765h-69l-85 113h81z" />
    <glyph glyph-name="acutecomb.case" 
d="M-204 764l73 114h81l-85 -114h-69z" />
    <glyph glyph-name="uni030B.case" 
d="M-341 765l66 113h73l-78 -113h-61zM-206 765l79 113h73l-91 -113h-61z" />
    <glyph glyph-name="caroncomb.alt.case" 
d="M-189 764l51 133h62l-62 -133h-51z" />
    <glyph glyph-name="uni0302.case" 
d="M-66 764h-70l-70 70l-70 -70h-69l104 112h70z" />
    <glyph glyph-name="uni030C.case" 
d="M-52 876l-105 -112h-70l-104 112h68l70 -70l71 70h70z" />
    <glyph glyph-name="uni0306.case" 
d="M-56 862q0 -37 -33.5 -69t-97.5 -32t-97.5 32t-33.5 69h58q0 -20 21 -37.5t52 -17.5t52.5 17.5t21.5 37.5h57z" />
    <glyph glyph-name="uni030A.case" 
d="M-59 840q0 -38 -24 -61t-65 -23t-64.5 23t-23.5 61t23.5 61t64.5 23t65 -23t24 -61zM-186 840q0 -18 10.5 -29t27.5 -11q18 0 28.5 11t10.5 29q0 19 -10.5 29.5t-28.5 10.5q-17 0 -27.5 -10.5t-10.5 -29.5z" />
    <glyph glyph-name="tildecomb.case" 
d="M-64 864q0 -100 -80 -100q-29 0 -45.5 11.5t-29 23t-31.5 11.5q-39 0 -39 -46h-48q0 99 80 99q35 0 60 -23t46 -23q38 0 38 47h49z" />
    <glyph glyph-name="uni0304.case" 
d="M-294 841h234v-54h-234v54z" />
    <glyph glyph-name="uni0338.case" 
d="M-489 19l496 726h80l-495 -726h-81z" />
    <glyph glyph-name="uni0335.sc" horiz-adv-x="349" 
d="M47 305v51h256v-51h-256z" />
    <glyph glyph-name="uni0336.sc" horiz-adv-x="773" 
d="M91 302v57h584v-57h-584z" />
    <glyph glyph-name="uni0338.sc" horiz-adv-x="396" 
d="M-63 79l445 617h80l-445 -617h-80z" />
    <glyph glyph-name="bitcoin.sc" horiz-adv-x="488" 
d="M169 -41v79h-100v540h100v75h39v-75h50v75h39v-77q74 -6 105.5 -40t31.5 -93q0 -49 -18.5 -79.5t-66.5 -43.5q55 -14 77 -47.5t22 -85.5q0 -75 -30 -109t-121 -39v-80h-39v79h-50v-79h-39zM128 528v-182h130q68 0 93.5 21t25.5 69q0 47 -29 69.5t-90 22.5h-130zM128 295
v-207h130q76 -1 104 21.5t28 81.5q0 53 -30.5 78.5t-101.5 25.5h-130z" />
    <glyph glyph-name="bitcoin" horiz-adv-x="582" 
d="M202 -49v95h-118v643h118v90h43v-90h60v90h42v-92q89 -7 126.5 -47t37.5 -111q0 -59 -22.5 -95t-81.5 -51q120 -29 120 -161q0 -88 -35.5 -128.5t-144.5 -46.5v-96h-42v95h-60v-95h-43zM146 634v-222l160 -1q83 0 113.5 26.5t30.5 85.5q0 57 -34.5 84t-109.5 27h-160z
M146 354v-253l160 -1q93 0 126.5 27.5t33.5 99.5q0 65 -37 96t-123 31h-160z" />
    </font>
</defs>
</svg>
