<?xml version="1.0" standalone="no"?>
<!DOCTYPE svg PUBLIC "-//W3C//DTD SVG 1.1//EN" "http://www.w3.org/Graphics/SVG/1.1/DTD/svg11.dtd" >
<svg xmlns="http://www.w3.org/2000/svg">
<metadata>
<json>
<![CDATA[
{
	"fontFamily": "Iconly-Broken",
	"majorVersion": 2,
	"minorVersion": 0,
	"fontURL": "https://ui8.net/piqodesign",
	"description": "Iconly - Essential icons\nFont generated by IcoMoon.",
	"copyright": "MIT",
	"designer": "Piqo Design",
	"designerURL": "https://dribbble.com/piqodesign",
	"license": "MIT",
	"licenseURL": "https://opensource.org/licenses/MIT",
	"version": "Version 2.0",
	"fontId": "Iconly-Broken",
	"psName": "Iconly-Broken",
	"subFamily": "Regular",
	"fullName": "Iconly-Broken"
}
]]>
</json>
</metadata>
<defs>
<font id="Iconly-Broken" horiz-adv-x="1024">
<font-face units-per-em="1024" ascent="960" descent="-64" />
<missing-glyph horiz-adv-x="1024" />
<glyph unicode="&#x20;" horiz-adv-x="512" d="" />
<glyph unicode="&#xe900;" glyph-name="User" data-tags="User" d="M409.237 344.838c139.041 0 323.861-15.608 323.861-150.682 0-142.401-215.405-150.945-307.766-151.457l-16.094-0.033c-17.663 0-31.998 14.247-31.998 31.897 0 17.607 14.335 31.897 31.998 31.897 118.563 0 259.865 15.183 259.865 87.696 0 57.627-87.418 86.888-259.865 86.888-118.563 0-259.908-15.183-259.908-87.738 0-16.246 4.778-37.213 41.981-55.416 15.103-7.4 34.174-13.567 56.658-18.33 17.279-3.658 28.329-20.584 24.617-37.851-3.669-17.224-20.649-28.325-37.928-24.539-27.603 5.869-51.666 13.737-71.505 23.391-64.294 31.472-77.819 78.722-77.819 112.746 0 151.532 243.781 151.532 323.903 151.532zM750.359 374.928c24.702-1.701 49.49-5.274 73.723-10.632 53.97-10.59 89.509-32.365 104.953-64.687 12.842-26.921 12.842-57.712 0-84.634-15.231-32.025-50.727-53.927-105.465-65.113-2.176-0.425-4.309-0.638-6.485-0.638-14.847 0-28.201 10.377-31.273 25.475-3.541 17.267 7.594 34.109 24.916 37.639 32.552 6.635 54.61 17.565 60.497 29.983 4.522 9.527 4.522 20.414 0.043 29.856-6.016 12.504-27.987 23.349-60.327 29.686-21.844 4.848-43.432 7.953-64.977 9.399-17.62 1.233-30.931 16.416-29.694 33.981 1.195 17.65 16.767 30.579 34.088 29.686zM409.245 853.333c120.781 0 219.036-97.988 219.036-218.389s-98.255-218.389-219.036-218.389c-49.49 0-96.122 15.863-134.775 45.889-13.951 10.845-16.468 30.876-5.589 44.784 10.879 13.865 30.931 16.374 44.882 5.571 27.347-21.222 60.369-32.45 95.482-32.45 85.498 0 155.040 69.366 155.040 154.595s-69.542 154.595-155.040 154.595c-85.541 0-155.083-69.366-155.083-154.595 0-17.607-14.335-31.897-31.998-31.897s-31.998 14.29-31.998 31.897c0 120.401 98.255 218.389 219.079 218.389zM683.488 807.814c95.226 0 172.66-77.233 172.66-172.117 0-94.926-77.435-172.117-172.66-172.117-17.663 0-31.998 14.29-31.998 31.897s14.335 31.897 31.998 31.897c59.943 0 108.665 48.611 108.665 108.323s-48.722 108.323-108.665 108.323c-17.663 0-31.998 14.29-31.998 31.897s14.335 31.897 31.998 31.897z" />
<glyph unicode="&#xe901;" glyph-name="User1" data-tags="User" d="M528.967 357.251c88.060-0.539 270.611-8.809 270.611-135.603 0-127.424-189.124-135.735-271.897-136.277l-15.671-0.038c-16.306 0-29.541 13.307-29.541 29.702s13.234 29.702 29.541 29.702c104.219 0 228.487 13.346 228.487 76.909 0 50.613-76.845 76.236-228.487 76.236-104.219 0-228.487-13.346-228.487-76.949 0-14.178 4.136-32.435 36.394-48.316 13.234-6.535 30.013-12 49.786-16.237 15.952-3.406 26.153-19.208 22.727-35.247-3.387-16.039-19.142-26.415-35.015-22.851-24.499 5.267-45.847 12.317-63.493 20.95-57.427 28.316-69.48 70.929-69.48 101.701 0 127.461 189.124 135.774 271.897 136.316zM813.631 384.096c21.86-1.465 43.838-4.673 65.423-9.465 48.092-9.584 79.799-29.267 93.624-58.375 11.541-24.356 11.541-52.237 0-76.593-13.667-28.871-45.296-48.633-94.097-58.732-1.969-0.436-3.978-0.634-5.987-0.634-13.707 0-25.996 9.703-28.871 23.722-3.269 16.079 7.011 31.801 23.002 35.088 40.293 8.356 50.219 21.029 52.622 26.099 3.821 8.079 3.821 17.386 0 25.465-5.042 10.653-24.617 20.277-52.425 25.821-19.339 4.277-38.403 7.089-57.23 8.356-16.306 1.069-28.595 15.287-27.492 31.643 1.063 16.356 15.282 28.475 31.431 27.603zM210.684 384.706c15.755 1.228 30.368-11.247 31.471-27.603 1.103-16.396-11.186-30.574-27.492-31.643-18.985-1.267-38.048-4.079-56.679-8.277-28.595-5.663-48.25-15.326-53.331-26.019-3.821-8.119-3.821-17.505 0-25.623 2.442-5.109 12.368-17.821 52.819-26.178 15.991-3.287 26.271-18.97 23.002-35.049-2.836-14.059-15.164-23.722-28.91-23.722-1.969 0-3.939 0.198-5.948 0.594-48.88 10.059-80.587 29.861-94.294 58.85-11.541 24.356-11.541 52.276 0 76.632 13.864 29.267 45.65 49.029 94.491 58.692 20.836 4.673 42.932 7.881 64.871 9.346zM512.022 810.667c107.449 0 194.889-87.88 194.889-195.957s-87.44-195.957-194.889-195.957c-43.996 0-85.471 14.218-119.895 41.148-12.88 10.059-15.204 28.712-5.199 41.663 9.965 12.99 28.595 15.287 41.475 5.188 23.948-18.693 52.858-28.594 83.62-28.594 74.915 0 135.808 61.266 135.808 136.552s-60.893 136.552-135.808 136.552c-74.915 0-135.847-61.266-135.847-136.552 0-16.396-13.234-29.702-29.541-29.702s-29.541 13.307-29.541 29.702c0 108.077 87.44 195.957 194.929 195.957zM754.487 770.089c84.841 0 153.887-69.385 153.887-154.73 0-85.305-69.046-154.73-153.887-154.73-16.306 0-29.541 13.307-29.541 29.702s13.234 29.702 29.541 29.702c52.267 0 94.806 42.771 94.806 95.325s-42.538 95.325-94.806 95.325c-16.306 0-29.541 13.307-29.541 29.702 0 16.435 13.234 29.702 29.541 29.702zM270.009 771.729c16.306 0 29.541-13.307 29.541-29.702s-13.234-29.702-29.541-29.702c-52.464 0-95.16-42.93-95.16-95.681s42.696-95.642 95.16-95.642c16.306 0 29.541-13.307 29.541-29.702s-13.234-29.702-29.541-29.702c-85.038 0-154.241 69.543-154.241 155.047s69.204 155.086 154.241 155.086z" />
<glyph unicode="&#xe902;" glyph-name="Activity" data-tags="Activity" d="M877.2 584.953c17.138-0.206 30.921-14.127 30.921-31.229v0-276.166c0-158.024-98.795-256.225-257.168-256.225v0h-125.945c-17.347 0-31.468 13.921-31.675 31.229 0.204 17.37 14.266 31.402 31.675 31.605v0h125.945c124.813 0 193.819 68.477 194.95 193.391v0 276.166c0 17.247 14.012 31.229 31.298 31.229zM619.655 841.554c17.346-0.206 31.298-14.296 31.298-31.605 0-8.348-3.349-16.349-9.3-22.216s-14.009-9.113-22.375-9.013v0h-277.153c-124.813 0-193.819-68.853-193.819-193.768v0-307.395c0-124.914 69.006-193.391 193.819-193.391 17.408-0.203 31.471-14.235 31.675-31.605-0.207-17.308-14.327-31.229-31.675-31.229-158.373 0-256.791 98.201-256.791 256.225v0 307.395c0 158.4 98.418 256.601 256.791 256.601v0zM667.331 555.769c11.012 7.501 25.849 7.286 36.713-1.053 12.223-9.381 15.776-26.248 8.372-39.746v0l-120.665-155.39c-5.283-6.507-12.817-10.802-21.116-12.040-8.261-0.838-16.521 1.594-23.002 6.772v0l-115.763 90.676-104.074-135.073c-4.963-6.737-12.426-11.207-20.718-12.409s-16.721 0.964-23.4 6.013c-13.631 10.663-16.15 30.272-5.656 44.021v0l123.305 160.282c5.144 6.645 12.726 10.975 21.074 12.034s16.775-1.24 23.421-6.39v0l115.763-90.676 101.811 129.806zM785.116 866.135c41.414 17.24 89.159 7.869 120.943-23.737s41.339-79.214 24.202-120.595c-17.137-41.381-57.585-68.373-102.458-68.373-61.080 0-110.654 49.296-110.862 110.241v0l0.252 7.853c2.813 41.6 28.946 78.386 67.924 94.612zM827.803 811.454c-26.448 0-47.889-21.393-47.889-47.783s21.441-47.783 47.889-47.783c26.448 0 47.889 21.393 47.889 47.783s-21.441 47.783-47.889 47.783z" />
<glyph unicode="&#xe903;" glyph-name="Add-User" data-tags="Add User" d="M439.751 335.326c96.194-0.513 321.545-9.229 321.545-157.407 0-140.33-192.883-156.586-337.982-156.586-14.625 0-29.037 0.213-43.194 0.555-16.835 0.512-30.099 14.635-29.589 31.573 0.468 16.896 15.050 29.611 31.375 29.739 13.562-0.427 27.379-0.597 41.408-0.597 183.743 0 276.932 32.043 276.932 95.317 0 63.829-93.189 96.17-276.932 96.17s-276.932-32.085-276.932-95.317c0-20.693 7.312-50.688 70.785-72.277 15.985-5.419 24.53-22.827 19.131-38.826-5.442-15.957-22.702-24.747-38.73-19.2-92.764 31.531-112.235 88.277-112.235 130.303 0 140.373 192.883 156.586 337.982 156.586zM819.799 617.196c17.601 0 31.885-14.336 31.885-32v0-53.504h55.097c17.601 0 31.885-14.336 31.885-32s-14.285-32-31.885-32v0h-55.097v-53.546c0-17.664-14.285-32-31.885-32s-31.885 14.336-31.885 32v0 53.546h-55.012c-17.601 0-31.885 14.336-31.885 32s14.285 32 31.885 32v0h55.012v53.504c0 17.664 14.285 32 31.885 32zM423.315 874.667c125.5 0 227.574-102.485 227.574-228.436s-102.075-228.436-227.574-228.436c-125.5 0-227.574 102.485-227.574 228.436s102.075 228.436 227.574 228.436zM423.315 813.355c-91.829 0-166.525-74.965-166.525-167.124s74.696-167.124 166.525-167.124c91.829 0 166.525 74.965 166.525 167.124s-74.696 167.124-166.525 167.124z" />
<glyph unicode="&#xe904;" glyph-name="Arrow---Down-2" data-tags="Arrow - Down 2" d="M180.979 629.589c13.718 13.849 35.958 13.944 49.676-0.095v0l306.202-312.578c13.718-13.992 13.671-36.597-0.094-50.494-6.836-6.901-15.825-10.422-24.768-10.422-9.036 0-18.026 3.522-24.861 10.518v0l-306.202 312.578c-13.718 13.992-13.671 36.597 0.047 50.494zM793.298 629.49c13.718 14.039 35.958 13.944 49.676 0.095 13.765-13.897 13.812-36.502 0.14-50.494v0l-203.339-207.592c-6.836-6.996-15.872-10.518-24.861-10.518-8.943 0-17.932 3.522-24.768 10.422-13.765 13.897-13.812 36.502-0.14 50.494v0z" />
<glyph unicode="&#xe905;" glyph-name="Arrow---Down-3" data-tags="Arrow - Down 3" d="M716.064 458.171h-173.457v342.503c0 17.292-13.71 31.326-30.603 31.326s-30.603-14.034-30.603-31.326v-342.503h-173.457c-11.139 0-21.422-6.182-26.808-16.206-5.386-9.983-5.019-22.179 0.898-31.786l204.060-331.518c5.631-9.147 15.383-14.661 25.91-14.661s20.279 5.513 25.91 14.661l126.941 206.295c9.018 14.577 4.733 33.958-9.548 43.189-14.322 9.189-33.214 4.803-42.232-9.857l-101.071-164.151-148.648 241.381h352.708c16.893 0 30.603 14.034 30.603 31.326s-13.71 31.326-30.603 31.326z" />
<glyph unicode="&#xe906;" glyph-name="Arrow---Down-Circle" data-tags="Arrow - Down Circle" d="M512.021 874.667c235.264 0 426.667-191.403 426.667-426.667s-191.403-426.667-426.667-426.667c-235.264 0-426.667 191.403-426.667 426.667 0 133.461 60.715 256.725 166.485 338.219 13.568 10.453 33.109 7.893 43.52-5.632 10.496-13.568 7.893-33.024-5.632-43.563-90.496-69.589-142.336-174.976-142.336-289.024 0-201.045 163.541-364.629 364.629-364.629 201.045 0 364.587 163.584 364.587 364.629s-163.541 364.629-364.587 364.629c-18.645 0-37.291-1.408-55.424-4.181-16.896-2.56-32.725 9.045-35.328 25.984-2.816 17.024 9.003 32.768 25.941 35.371 21.248 3.243 43.051 4.864 64.811 4.864zM341.321 532.215c12.544 12.459 32.768 12.459 45.227-0.085v0l125.44-125.995 125.44 125.995c12.459 12.544 32.725 12.544 45.269 0.085 12.501-12.459 12.544-32.725 0.085-45.269v0l-148.139-148.736c-5.973-6.059-14.123-9.429-22.656-9.429-8.491 0-16.64 3.371-22.656 9.429v0l-148.096 148.736c-12.501 12.544-12.459 32.811 0.085 45.269z" />
<glyph unicode="&#xe907;" glyph-name="Arrow---Down-Square" data-tags="Arrow - Down Square" d="M461.73 874.671c17.792 0 32.256-14.464 32.256-32.256v0-0.384h-0.725c0-18.005-14.592-32.597-32.597-32.64v0h-108.544c-130.261 0-201.515-71.253-201.515-201.131v0-320c0-129.963 71.68-201.643 201.515-201.643v0h320c129.451 0 201.131 71.68 201.131 201.515v0 320c0 129.835-71.68 201.131-201.131 201.131-18.005 0-32.64 14.635-32.64 32.64s14.635 32.64 32.64 32.64c164.48 0.128 266.539-101.931 266.539-266.283v0-320.128c0-164.736-102.059-266.795-266.411-266.795v0h-320c-164.821 0-266.923 102.059-266.923 266.795v0 320c0 163.712 102.101 266.539 266.795 266.539v0zM511.996 654.336c17.664 0 32-14.336 32-32v0-348.672c0-4.224-0.853-8.32-2.475-12.288-1.621-3.883-3.968-7.424-6.955-10.368-0.299-0.341-0.683-0.427-0.981-0.725-2.816-2.517-5.888-4.693-9.387-6.144-3.456-1.408-7.083-2.005-10.709-2.176-0.555-0.043-0.939-0.299-1.493-0.299v0c-4.224 0-8.363 0.853-12.245 2.475-3.925 1.621-7.467 3.968-10.368 6.912-0.043 0-0.043 0-0.043 0.043l-159.915 160.597c-12.416 12.501-12.501 32.768 0.085 45.227 12.544 12.501 32.768 12.459 45.227-0.085v0l105.259-105.685v271.189c0 17.664 14.336 32 32 32zM649.254 456.845c12.459 12.544 32.683 12.587 45.227 0.128 6.315-6.315 9.429-14.507 9.429-22.741 0-8.149-3.115-16.299-9.344-22.571v0l-54.528-54.784c-12.459-12.501-32.725-12.544-45.269-0.085-12.501 12.501-12.501 32.725-0.043 45.269v0z" />
<glyph unicode="&#xe908;" glyph-name="Arrow---Down" data-tags="Arrow - Down" d="M490.674 832c19.556 0 35.428-15.639 35.428-34.909v0-698.182c0-14.15-8.645-26.857-21.918-32.256-4.346-1.769-8.928-2.653-13.51-2.653-9.211 0-18.328 3.537-25.083 10.287v0l-284.608 281.6c-13.793 13.638-13.746 35.747 0.094 49.338 13.888 13.591 36.326 13.591 50.119-0.093v0l224.049-221.696v613.655c0 19.27 15.872 34.909 35.428 34.909zM750.137 405.136c13.793 13.684 36.231 13.684 50.119 0.093 13.841-13.591 13.888-35.7 0.094-49.385v0l-156.971-155.276c-6.944-6.889-16.014-10.287-25.131-10.287-9.022 0-18.045 3.398-24.989 10.193-13.888 13.591-13.935 35.654-0.094 49.338v0z" />
<glyph unicode="&#xe909;" glyph-name="Arrow---Left-2" data-tags="Arrow - Left 2" d="M693.589 116.979c12.695 12.575 13.833 32.31 3.12 46.079l-3.216 3.597-312.578 306.202c-13.992 13.718-36.597 13.671-50.494-0.094-6.901-6.836-10.422-15.825-10.422-24.768 0-7.53 2.446-15.028 7.309-21.274l3.208-3.588 312.578-306.202c13.992-13.718 36.597-13.671 50.494 0.047zM693.49 729.298c14.039 13.718 13.944 35.958 0.095 49.676-12.739 12.618-32.795 13.709-46.827 3.273l-3.667-3.132-207.592-203.339c-6.996-6.836-10.518-15.872-10.518-24.861 0-8.943 3.522-17.932 10.422-24.768 12.739-12.618 32.795-13.709 46.827-3.273l3.667 3.132 207.592 203.292z" />
<glyph unicode="&#xe90a;" glyph-name="Arrow---Left-3" data-tags="Arrow - Left 3" d="M522.171 243.936v173.457h342.503c17.292 0 31.326 13.71 31.326 30.603s-14.034 30.603-31.326 30.603h-342.503v173.457c0 11.139-6.182 21.422-16.206 26.808-9.983 5.386-22.179 5.019-31.786-0.898l-331.518-204.060c-9.147-5.631-14.661-15.383-14.661-25.91s5.513-20.279 14.661-25.91l206.295-126.941c14.577-9.018 33.958-4.733 43.189 9.548 9.189 14.322 4.803 33.214-9.857 42.232l-164.151 101.071 241.381 148.648v-352.708c0-16.893 14.034-30.603 31.326-30.603s31.326 13.71 31.326 30.603z" />
<glyph unicode="&#xe90b;" glyph-name="Arrow---Left-Circle" data-tags="Arrow - Left Circle" d="M938.688 448c0-235.264-191.403-426.667-426.667-426.667s-426.667 191.403-426.667 426.667c0 235.264 191.403 426.667 426.667 426.667 133.461 0 256.725-60.715 338.219-166.485 10.453-13.568 7.893-33.109-5.632-43.52-13.568-10.496-33.024-7.893-43.563 5.632-69.589 90.496-174.976 142.336-289.024 142.336-201.045 0-364.629-163.541-364.629-364.629 0-201.045 163.584-364.587 364.629-364.587s364.629 163.541 364.629 364.587c0 18.645-1.408 37.291-4.181 55.424-2.56 16.896 9.045 32.725 25.984 35.328 17.024 2.816 32.768-9.003 35.371-25.941 3.243-21.248 4.864-43.051 4.864-64.811zM596.237 618.701c12.459-12.544 12.459-32.768-0.085-45.227v0l-125.995-125.44 125.995-125.44c12.544-12.459 12.544-32.725 0.085-45.269-12.459-12.501-32.725-12.544-45.269-0.085v0l-148.736 148.139c-6.059 5.973-9.429 14.123-9.429 22.656 0 8.491 3.371 16.64 9.429 22.656v0l148.736 148.096c12.544 12.501 32.811 12.459 45.269-0.085z" />
<glyph unicode="&#xe90c;" glyph-name="Arrow---Left-Square" data-tags="Arrow - Left Square" d="M938.658 498.261c0-17.792-14.464-32.256-32.256-32.256v0h-0.384v0.725c-18.005 0-32.597 14.592-32.64 32.597v0 108.544c0 130.261-71.253 201.515-201.131 201.515v0h-320c-129.963 0-201.643-71.68-201.643-201.515v0-320c0-129.451 71.68-201.131 201.515-201.131v0h320c129.835 0 201.131 71.68 201.131 201.131 0 18.005 14.635 32.64 32.64 32.64s32.64-14.635 32.64-32.64c0.128-164.48-101.931-266.539-266.283-266.539v0h-320.128c-164.736 0-266.795 102.059-266.795 266.411v0 320c0 164.821 102.059 266.923 266.795 266.923v0h320c163.712 0 266.539-102.101 266.539-266.795v0zM718.323 447.996c0-17.664-14.336-32-32-32v0h-348.672c-4.224 0-8.32 0.853-12.288 2.475-3.883 1.621-7.424 3.968-10.368 6.955-0.341 0.299-0.427 0.683-0.725 0.981-2.517 2.816-4.693 5.888-6.144 9.387-1.408 3.456-2.005 7.083-2.176 10.709-0.043 0.555-0.299 0.939-0.299 1.493v0c0 4.224 0.853 8.363 2.475 12.245 1.621 3.925 3.968 7.467 6.912 10.368 0 0.043 0 0.043 0.043 0.043l160.597 159.915c12.501 12.416 32.768 12.501 45.227-0.085 12.501-12.544 12.459-32.768-0.085-45.227v0l-105.685-105.259h271.189c17.664 0 32-14.336 32-32zM520.832 310.737c12.544-12.459 12.587-32.683 0.128-45.227-6.315-6.315-14.507-9.429-22.741-9.429-8.149 0-16.299 3.115-22.571 9.344v0l-54.784 54.528c-12.501 12.459-12.544 32.725-0.085 45.269 12.501 12.501 32.725 12.501 45.269 0.043v0z" />
<glyph unicode="&#xe90d;" glyph-name="Arrow---Left" data-tags="Arrow - Left" d="M896 447.993c0-18.052-13.326-32.965-30.532-35.152l-4.377-0.276h-698.182c-14.15 0-26.857 8.645-32.256 21.918-1.769 4.346-2.653 8.928-2.653 13.51 0 7.676 2.457 15.287 7.181 21.519l3.105 3.564 281.6 284.608c13.638 13.793 35.747 13.746 49.338-0.094 12.459-12.731 13.497-32.646 3.043-46.501l-3.136-3.619-221.696-224.049h613.655c19.27 0 34.909-15.872 34.909-35.428zM469.136 188.529c13.684-13.793 13.684-36.231 0.093-50.119-12.459-12.687-32.075-13.784-45.798-3.255l-3.587 3.16-155.276 156.971c-6.889 6.944-10.287 16.014-10.287 25.131 0 9.022 3.398 18.045 10.193 24.989 12.459 12.731 32.036 13.831 45.752 3.265l3.586-3.171 155.322-156.971z" />
<glyph unicode="&#xe90e;" glyph-name="Arrow---Right-2" data-tags="Arrow - Right 2" d="M330.411 116.979c-12.695 12.575-13.833 32.31-3.12 46.079l3.216 3.597 312.578 306.202c13.992 13.718 36.597 13.671 50.494-0.094 6.901-6.836 10.422-15.825 10.422-24.768 0-7.53-2.446-15.028-7.309-21.274l-3.208-3.588-312.578-306.202c-13.992-13.718-36.597-13.671-50.494 0.047zM330.51 729.298c-14.039 13.718-13.944 35.958-0.095 49.676 12.739 12.618 32.795 13.709 46.827 3.273l3.667-3.132 207.592-203.339c6.996-6.836 10.518-15.872 10.518-24.861 0-8.943-3.522-17.932-10.422-24.768-12.739-12.618-32.795-13.709-46.827-3.273l-3.667 3.132-207.592 203.292z" />
<glyph unicode="&#xe90f;" glyph-name="Arrow---Right-3" data-tags="Arrow - Right 3" d="M501.829 652.064v-173.457h-342.503c-17.292 0-31.326-13.71-31.326-30.603s14.034-30.603 31.326-30.603h342.503v-173.457c0-11.139 6.182-21.422 16.206-26.808 9.983-5.386 22.179-5.019 31.786 0.898l331.518 204.060c9.147 5.631 14.661 15.383 14.661 25.91s-5.513 20.279-14.661 25.91l-206.295 126.941c-14.577 9.018-33.958 4.733-43.189-9.548-9.189-14.322-4.803-33.214 9.857-42.232l164.151-101.071-241.381-148.648v352.708c0 16.893-14.034 30.603-31.326 30.603s-31.326-13.71-31.326-30.603z" />
<glyph unicode="&#xe910;" glyph-name="Arrow---Right-Circle" data-tags="Arrow - Right Circle" d="M85.355 448c0 235.264 191.403 426.667 426.667 426.667s426.667-191.403 426.667-426.667c0-235.264-191.403-426.667-426.667-426.667-133.461 0-256.725 60.715-338.219 166.485-10.453 13.568-7.893 33.109 5.632 43.52 13.568 10.496 33.024 7.893 43.563-5.632 69.589-90.496 174.976-142.336 289.024-142.336 201.045 0 364.629 163.541 364.629 364.629 0 201.045-163.584 364.587-364.629 364.587s-364.629-163.541-364.629-364.587c0-18.645 1.408-37.291 4.181-55.424 2.56-16.896-9.045-32.725-25.984-35.328-17.024-2.816-32.768 9.003-35.371 25.941-3.243 21.248-4.864 43.051-4.864 64.811zM427.806 277.299c-12.459 12.544-12.459 32.768 0.085 45.227v0l125.995 125.44-125.995 125.44c-12.544 12.459-12.544 32.725-0.085 45.269 12.459 12.501 32.725 12.544 45.269 0.085v0l148.736-148.139c6.059-5.973 9.429-14.123 9.429-22.656 0-8.491-3.371-16.64-9.429-22.656v0l-148.736-148.096c-12.544-12.501-32.811-12.459-45.269 0.085z" />
<glyph unicode="&#xe911;" glyph-name="Arrow---Right-Square" data-tags="Arrow - Right Square" d="M85.325 397.739c0 17.792 14.464 32.256 32.256 32.256v0h0.384v-0.725c18.005 0 32.597-14.592 32.64-32.597v0-108.544c0-130.261 71.253-201.515 201.131-201.515v0h320c129.963 0 201.643 71.68 201.643 201.515v0 320c0 129.451-71.68 201.131-201.515 201.131v0h-320c-129.835 0-201.131-71.68-201.131-201.131 0-18.005-14.635-32.64-32.64-32.64s-32.64 14.635-32.64 32.64c-0.128 164.48 101.931 266.539 266.283 266.539v0h320.128c164.736 0 266.795-102.059 266.795-266.411v0-320c0-164.821-102.059-266.923-266.795-266.923v0h-320c-163.712 0-266.539 102.101-266.539 266.795v0zM305.66 448.004c0 17.664 14.336 32 32 32v0h348.672c4.224 0 8.32-0.853 12.288-2.475 3.883-1.621 7.424-3.968 10.368-6.955 0.341-0.299 0.427-0.683 0.725-0.981 2.517-2.816 4.693-5.888 6.144-9.387 1.408-3.456 2.005-7.083 2.176-10.709 0.043-0.555 0.299-0.939 0.299-1.493v0c0-4.224-0.853-8.363-2.475-12.245-1.621-3.925-3.968-7.467-6.912-10.368 0-0.043 0-0.043-0.043-0.043l-160.597-159.915c-12.501-12.416-32.768-12.501-45.227 0.085-12.501 12.544-12.459 32.768 0.085 45.227v0l105.685 105.259h-271.189c-17.664 0-32 14.336-32 32zM503.151 585.263c-12.544 12.459-12.587 32.683-0.128 45.227 6.315 6.315 14.507 9.429 22.741 9.429 8.149 0 16.299-3.115 22.571-9.344v0l54.784-54.528c12.501-12.459 12.544-32.725 0.085-45.269-12.501-12.501-32.725-12.501-45.269-0.043v0z" />
<glyph unicode="&#xe912;" glyph-name="Arrow---Right" data-tags="Arrow - Right" d="M128 448.007c0 18.052 13.326 32.965 30.532 35.152l4.377 0.276h698.182c14.15 0 26.857-8.645 32.256-21.918 1.769-4.346 2.653-8.928 2.653-13.51 0-7.676-2.457-15.287-7.181-21.519l-3.105-3.564-281.6-284.608c-13.638-13.793-35.747-13.746-49.338 0.094-12.459 12.731-13.497 32.646-3.043 46.501l3.136 3.619 221.696 224.049h-613.655c-19.27 0-34.909 15.872-34.909 35.428zM554.864 707.471c-13.684 13.793-13.684 36.231-0.093 50.119 12.459 12.687 32.075 13.784 45.798 3.255l3.587-3.16 155.276-156.971c6.889-6.944 10.287-16.014 10.287-25.131 0-9.022-3.398-18.045-10.193-24.989-12.459-12.731-32.036-13.831-45.752-3.265l-3.586 3.171-155.322 156.971z" />
<glyph unicode="&#xe913;" glyph-name="Arrow---Up-2" data-tags="Arrow - Up 2" d="M180.979 266.411c12.575-12.695 32.31-13.833 46.079-3.12l3.597 3.216 306.202 312.578c13.718 13.992 13.671 36.597-0.094 50.494-6.836 6.901-15.825 10.422-24.768 10.422-7.53 0-15.028-2.446-21.274-7.309l-3.588-3.208-306.202-312.578c-13.718-13.992-13.671-36.597 0.047-50.494zM793.298 266.51c13.718-14.039 35.958-13.944 49.676-0.095 12.618 12.739 13.709 32.795 3.273 46.827l-3.132 3.667-203.339 207.592c-6.836 6.996-15.872 10.518-24.861 10.518-8.943 0-17.932-3.522-24.768-10.422-12.618-12.739-13.709-32.795-3.273-46.827l3.132-3.667 203.292-207.592z" />
<glyph unicode="&#xe914;" glyph-name="Arrow---Up-3" data-tags="Arrow - Up 3" d="M307.936 437.829h173.457v-342.503c0-17.292 13.71-31.326 30.603-31.326s30.603 14.034 30.603 31.326v342.503h173.457c11.139 0 21.422 6.182 26.808 16.206 5.386 9.983 5.019 22.179-0.898 31.786l-204.060 331.518c-5.631 9.147-15.383 14.661-25.91 14.661s-20.279-5.513-25.91-14.661l-126.941-206.295c-9.018-14.577-4.733-33.958 9.548-43.189 14.322-9.189 33.214-4.803 42.232 9.857l101.071 164.151 148.648-241.381h-352.708c-16.893 0-30.603-14.034-30.603-31.326s13.71-31.326 30.603-31.326z" />
<glyph unicode="&#xe915;" glyph-name="Arrow---Up-Circle" data-tags="Arrow - Up Circle" d="M512.021 21.333c-235.264 0-426.667 191.403-426.667 426.667s191.403 426.667 426.667 426.667c235.264 0 426.667-191.403 426.667-426.667 0-133.461-60.715-256.725-166.485-338.219-13.568-10.453-33.109-7.893-43.52 5.632-10.496 13.568-7.893 33.024 5.632 43.563 90.496 69.589 142.336 174.976 142.336 289.024 0 201.045-163.541 364.629-364.629 364.629-201.045 0-364.587-163.584-364.587-364.629s163.541-364.629 364.587-364.629c18.645 0 37.291 1.408 55.424 4.181 16.896 2.56 32.725-9.045 35.328-25.984 2.816-17.024-9.003-32.768-25.941-35.371-21.248-3.243-43.051-4.864-64.811-4.864zM682.722 363.785c-12.544-12.459-32.768-12.459-45.227 0.085v0l-125.44 125.995-125.44-125.995c-12.459-12.544-32.725-12.544-45.269-0.085-12.501 12.459-12.544 32.725-0.085 45.269v0l148.139 148.736c5.973 6.059 14.123 9.429 22.656 9.429 8.491 0 16.64-3.371 22.656-9.429v0l148.096-148.736c12.501-12.544 12.459-32.811-0.085-45.269z" />
<glyph unicode="&#xe916;" glyph-name="Arrow---Up-Square" data-tags="Arrow - Up Square" d="M562.253 21.333c-17.792 0-32.256 14.464-32.256 32.256v0 0.384h0.725c0 18.005 14.592 32.597 32.597 32.64v0h108.544c130.261 0 201.515 71.253 201.515 201.131v0 320c0 129.963-71.68 201.643-201.515 201.643v0h-320c-129.451 0-201.131-71.68-201.131-201.515v0-320c0-129.835 71.68-201.131 201.131-201.131 18.005 0 32.64-14.635 32.64-32.64s-14.635-32.64-32.64-32.64c-164.48-0.128-266.539 101.931-266.539 266.283v0 320.128c0 164.736 102.059 266.795 266.411 266.795v0h320c164.821 0 266.923-102.059 266.923-266.795v0-320c0-163.712-102.101-266.539-266.795-266.539v0zM511.987 241.668c-17.664 0-32 14.336-32 32v0 348.672c0 4.224 0.853 8.32 2.475 12.288 1.621 3.883 3.968 7.424 6.955 10.368 0.299 0.341 0.683 0.427 0.981 0.725 2.816 2.517 5.888 4.693 9.387 6.144 3.456 1.408 7.083 2.005 10.709 2.176 0.555 0.043 0.939 0.299 1.493 0.299v0c4.224 0 8.363-0.853 12.245-2.475 3.925-1.621 7.467-3.968 10.368-6.912 0.043 0 0.043 0 0.043-0.043l159.915-160.597c12.416-12.501 12.501-32.768-0.085-45.227-12.544-12.501-32.768-12.459-45.227 0.085v0l-105.259 105.685v-271.189c0-17.664-14.336-32-32-32zM374.729 439.159c-12.459-12.544-32.683-12.587-45.227-0.128-6.315 6.315-9.429 14.507-9.429 22.741 0 8.149 3.115 16.299 9.344 22.571v0l54.528 54.784c12.459 12.501 32.725 12.544 45.269 0.085 12.501-12.501 12.501-32.725 0.043-45.269v0z" />
<glyph unicode="&#xe917;" glyph-name="Arrow---Up" data-tags="Arrow - Up" d="M511.993 64c-18.052 0-32.965 13.326-35.152 30.532l-0.276 4.377v698.182c0 14.15 8.645 26.857 21.918 32.256 4.346 1.769 8.928 2.653 13.51 2.653 7.676 0 15.287-2.457 21.519-7.181l3.564-3.105 284.608-281.6c13.793-13.638 13.746-35.747-0.094-49.338-12.731-12.459-32.646-13.497-46.501-3.043l-3.619 3.136-224.049 221.696v-613.655c0-19.27-15.872-34.909-35.428-34.909zM252.529 490.864c-13.793-13.684-36.231-13.684-50.119-0.093-12.687 12.459-13.784 32.075-3.255 45.798l3.16 3.587 156.971 155.276c6.944 6.889 16.014 10.287 25.131 10.287 9.022 0 18.045-3.398 24.989-10.193 12.731-12.459 13.831-32.036 3.265-45.752l-3.171-3.586-156.971-155.322z" />
<glyph unicode="&#xe918;" glyph-name="Bag-2" data-tags="Bag 2" d="M709.133 683.776h-8.821c-1.123 105.429-84.878 190.891-187.813 190.891-51.842-0.725-97.651-19.627-133.308-55.936-35.199-35.755-54.755-83.371-55.503-134.955h-8.821c-114.793 0-208.2-95.787-208.2-213.547v-235.349c0-117.76 93.407-213.547 208.2-213.547 17.225 0 31.205 14.336 31.205 32s-13.98 32-31.205 32c-80.384 0-145.79 67.072-145.79 149.547v235.349c0 82.475 65.406 149.547 145.79 149.547h8.613v-67.456c0-17.664 13.98-32 31.205-32s31.205 14.336 31.205 32v129.963c0.125 34.432 13.356 66.773 37.196 91.051 23.924 24.192 55.836 35.413 89.288 37.333 68.61 0 124.404-56.747 125.528-126.891h-136.512c-17.225 0-31.205-14.336-31.205-32s13.98-32 31.205-32h136.72v-67.456c0-17.664 13.98-32 31.205-32s31.205 14.336 31.205 32v67.456h8.613c80.384 0 145.79-67.072 145.79-149.547v-235.349c0-82.475-65.406-149.547-145.79-149.547h-224.302c-17.225 0-31.205-14.336-31.205-32s13.98-32 31.205-32h224.302c114.793 0 208.2 95.787 208.2 213.547v235.349c0 117.76-93.407 213.547-208.2 213.547z" />
<glyph unicode="&#xe919;" glyph-name="Bag" data-tags="Bag" d="M358.107 804.949c55.166 61.477 141.229 84.88 219.906 59.799s135.347-93.986 144.803-176.064v0l6.333-0.126c61.551-2.457 131.916-41.129 151.845-149.893v0l32.235-250.533c12.369-87.011-3.748-154.145-41.231-198.776s-98.955-66.384-187.415-66.384v0h-341.47c-69.878-8.768-139.502 18.047-185.471 71.432s-62.176 126.25-43.175 194.103v0l0.932 4.359c4.434 15.524 19.762 25.768 36.176 23.394 17.907-2.589 30.325-19.213 27.737-37.13-11.714-49.098-1.449-100.865 28.112-141.769 36.32-34.447 85.383-52.126 135.313-48.756v0h341.844c67.844 0 114.698 14.252 139.062 43.881s34.109 79.135 24.364 146.644v0l-31.86 247.908c-11.245 60.008-46.104 97.513-93.333 97.513v0h-418.31c-44.98 0-79.839-37.505-93.707-100.138v0l-8.996-55.132c-4.132-16.846-20.59-27.617-37.67-24.653s-28.953 18.651-27.175 35.905v0l9.371 56.257c24.739 114.39 97.83 151.895 158.178 151.895v0h351.59c-5.148 33.236-21.558 63.691-46.479 86.261-59.218 52.992-150.147 47.956-203.158-11.251v0-3.75l-3.675-3.397c-7.787-6.172-18.035-8.565-27.89-6.301-11.498 2.641-20.714 11.219-24.176 22.503s-0.646 23.559 7.388 32.201zM637.369 519.533l4.858-0.747c4.89-1.132 9.571-3.031 13.869-5.626 3.833-3.026 7.237-6.559 10.12-10.501 1.626-1.819 2.784-4.008 3.373-6.376 1.141-2.233 1.901-4.642 2.249-7.126 0.387-2.485 0.387-5.016 0-7.501 0.127-4.92-0.9-9.801-2.999-14.252-1.879-4.834-4.978-9.098-8.996-12.377-6.92-7.066-16.351-11.111-26.238-11.251-5.003 0.199-9.941 1.213-14.618 3-7.816 4.647-13.677 11.978-16.492 20.628-1.983 4.478-2.882 9.361-2.624 14.252-0.381 2.486-0.381 5.015 0 7.501v0 7.126l3.748 6.376c1.067 2.184 2.603 4.105 4.498 5.626v0l5.622 4.876c2.089 1.419 4.358 2.555 6.747 3.375 2.255 1.086 4.653 1.844 7.122 2.25 4.808 1.12 9.81 1.12 14.618 0zM397.853 519.158l4.858-0.747c2.483-0.348 4.89-1.108 7.122-2.25 2.303-0.749 4.459-1.891 6.372-3.375 2.246-1.296 4.27-2.942 5.997-4.876 1.895-1.521 3.431-3.442 4.498-5.626 1.456-1.997 2.712-4.132 3.748-6.376v0l2.249-7.126c0.203-2.496 0.203-5.005 0-7.501 0-20.713-16.782-37.505-37.483-37.505-9.625 0.335-18.752 4.364-25.488 11.251-3.547 3.533-6.351 7.742-8.246 12.377-1.792 4.535-2.684 9.376-2.624 14.252-0.387 2.485-0.387 5.016 0 7.501 0.347 2.484 1.108 4.893 2.249 7.126 0.749 2.304 1.89 4.461 3.373 6.376 1.067 2.184 2.603 4.105 4.498 5.626 1.641 1.771 3.536 3.287 5.622 4.501 1.914 1.484 4.069 2.626 6.372 3.375 2.232 1.142 4.639 1.903 7.122 2.25 4.808 1.12 9.81 1.12 14.618 0z" />
<glyph unicode="&#xe91a;" glyph-name="Bookmark" data-tags="Bookmark" d="M662.437 874.667h-294.253c-121.379 0-197.517-84.731-197.517-220.677v-561.106c0-39.516 31.289-71.55 69.885-71.55 11.685 0 23.186 2.984 33.471 8.661l239.448 132.933 278.805-133.686c7.56-3.25 16.071-3.29 23.66-0.112s13.632 9.315 16.8 17.058c4.674 14.267-0.991 29.941-13.609 37.658l-276.966 132.557c-18.095 10.184-40.020 10.184-58.115 0l-239.816-132.557c-2.75-1.541-6.077-1.541-8.828 0-2.615 1.723-4.152 4.727-4.046 7.908v562.236c0.368 100.547 49.655 157.788 137.931 157.788h294.253c113.287 0 129.839-94.145 129.839-150.633v-25.608h-318.529c-8.099-0.294-15.751-3.873-21.27-9.948s-8.453-14.147-8.155-22.438c0.388-16.471 13.338-29.729 29.425-30.127h317.425v-329.509c0-17.262 13.668-31.256 30.529-31.256 16.718-0.001 30.327 13.765 30.529 30.88v0 418.005c0 131.803-72.828 213.522-190.897 213.522z" />
<glyph unicode="&#xe91b;" glyph-name="Buy" data-tags="Buy" d="M316.711 153.215c35.626 0 64.596-29.607 64.596-65.963s-28.97-65.919-64.596-65.919c-35.626 0-64.638 29.563-64.638 65.919s29.013 65.963 64.638 65.963zM796.784 153.215c35.626 0 64.638-29.607 64.638-65.963s-29.013-65.919-64.638-65.919c-35.626 0-64.596 29.563-64.596 65.919s28.97 65.963 64.596 65.963zM118.419 874.653l4.372-0.419 88.787-15.718c14.336-2.525 25.215-14.673 26.41-29.476v0l41.087-499.488c1.963-23.947 21.205-42.016 44.799-42.016v0h465.524c22.186 0 41.3 16.893 44.5 39.273v0l40.49 285.577c1.451 10.101-3.072 17.198-5.888 20.551-2.816 3.309-9.045 8.882-19.072 8.882v0h-458.442c-17.664 0-31.999 14.629-31.999 32.655s14.336 32.655 31.999 32.655v0h458.442c25.898 0 50.516-11.494 67.454-31.479s24.575-46.413 20.863-72.624v0l-40.532-285.577c-7.68-54.294-54.015-95.221-107.816-95.221v0h-465.524c-57.129 0-103.805 43.801-108.584 101.883v0l-38.996 474.366-64.425 11.364c-17.408 3.091-29.055 19.985-26.069 37.749 2.987 17.808 19.37 29.52 36.991 26.646zM721.014 546.179c17.664 0 31.999-14.629 31.999-32.655s-14.336-32.655-31.999-32.655v0h-118.312c-17.706 0-31.999 14.629-31.999 32.655s14.293 32.655 31.999 32.655v0z" />
<glyph unicode="&#xe91c;" glyph-name="Calendar" data-tags="Calendar" d="M673.762 874.627c16.159-1.011 28.627-14.861 28.197-31.324v0-44.155c128.371-12.454 194.041-83.405 194.041-210.965v0-352.866c0-141.901-80.881-213.984-240.046-213.984v0h-287.907c-159.165 0-240.046 72.083-240.046 213.984v0 352.866c0 84.914 28.939 145.675 88.301 181.15v0l4.164 2.373c8.605 4.017 18.698 3.648 27.087-1.222 9.787-5.682 15.567-16.512 14.919-27.956s-7.61-21.528-17.974-26.031c-39.328-23.399-57.878-64.157-57.878-128.315v0-11.322h541.31c16.188 0 29.31-13.348 29.31-29.814s-13.123-29.814-29.31-29.814v0h-541.31v-281.915c0-108.313 52.684-153.223 181.426-153.978v0h287.907c126.887 0 181.055 46.042 181.055 154.355v0 352.866c0 94.349-41.183 140.014-135.049 150.959v0-28.682c-2.165-15.288-15.324-26.448-30.497-25.866s-27.468 12.72-28.494 28.13v0 132.844l0.542 4.719c1.208 6.184 4.324 11.864 8.954 16.177 5.788 5.391 13.46 8.196 21.298 7.786zM690.645 268.928l4.724-0.304c8.101-1.016 15.698-4.731 21.564-10.638 7.038-7.089 10.998-16.745 10.998-26.82 0-20.843-16.611-37.74-37.101-37.74s-37.101 16.897-37.101 37.74c0 20.843 16.611 37.74 37.101 37.74l-0.184 0.022zM512.742 268.906l4.654-0.294c18.294-2.329 32.448-18.206 32.448-37.446 0-20.843-16.611-37.74-37.101-37.74s-37.101 16.897-37.101 37.74c0 20.843 16.611 37.74 37.101 37.74v0zM334.848 268.928l4.718-0.304c8.101-1.016 15.698-4.731 21.564-10.638 7.038-7.089 10.998-16.745 10.998-26.82 0-20.843-16.611-37.74-37.101-37.74s-37.101 16.897-37.101 37.74c0 20.843 16.611 37.74 37.101 37.74l-0.178 0.022zM690.645 421.76l4.724-0.29c8.101-1.016 15.698-4.731 21.564-10.638 7.038-7.089 10.998-16.745 10.998-26.82 0-20.843-16.611-37.74-37.101-37.74s-37.101 16.897-37.101 37.74c0 20.843 16.611 37.74 37.101 37.74l-0.184 0.009zM512.742 421.751l4.654-0.294c18.294-2.329 32.448-18.206 32.448-37.446 0-20.843-16.611-37.74-37.101-37.74s-37.101 16.897-37.101 37.74c0 20.843 16.611 37.74 37.101 37.74v0zM334.848 421.76l4.718-0.29c8.101-1.016 15.698-4.731 21.564-10.638 7.038-7.089 10.998-16.745 10.998-26.82 0-20.843-16.611-37.74-37.101-37.74s-37.101 16.897-37.101 37.74c0 20.843 16.611 37.74 37.101 37.74l-0.178 0.009zM351.536 870.125c15.11 0 27.809-11.547 29.496-26.821v0-41.136h167.699c16.188 0 29.31-13.348 29.31-29.814s-13.123-29.814-29.31-29.814v0h-168.441v-29.814c0.001-7.973-3.138-15.614-8.715-21.216s-13.128-8.699-20.966-8.598v0l-4.286 0.428c-13.965 2.454-24.472 14.925-24.285 29.764v0 130.202l0.828 4.463c3.425 13.006 15.070 22.359 28.67 22.359z" />
<glyph unicode="&#xe91d;" glyph-name="Call-Missed" data-tags="Call Missed" d="M183.735 508.364c14.548 9.894 34.472 6.354 44.498-8.274 110.67-160.652 312.897-341.604 441.572-395.126 52.093-24.138 90.832-25.631 119.672-4.99 22.441 13.647 86.352 77.063 85.2 110.072-0.384 3.881-4.821 11.174-12.415 18.935-24.574 25.162-107.044 87.512-124.237 93.994-13.482 2.815-27.732-5.374-49.32-18.893v0l-11.007-6.866c-15.188-9.041-34.814-4.179-43.901 10.918-9.13 15.182-4.224 34.843 10.922 43.927v0l9.941 6.141c23.892 15.012 56.7 35.44 98.255 26.91 32.681-6.781 135.458-91.35 155.126-111.394 18.473-18.893 28.755-39.022 30.505-59.919 2.773-78.513-102.521-160.652-114.553-167.518-22.996-16.59-49.917-24.949-80.166-24.949-30.121 0-63.569 8.274-99.791 25.077-139.34 57.915-350.015 245.392-468.493 417.473-10.026 14.543-6.357 34.416 8.191 44.481zM268.897 874.629l7.542-0.131c22.015-1.834 42.152-12.069 61.052-30.493 20.095-19.575 104.697-122.397 111.481-155.065 7.296-35.013-8.447-62.35-19.924-82.309-11.306-19.66-15.231-28.062-11.349-38.681 28.542-69.856 72.657-126.875 130.68-168.286 14.378-10.321 17.706-30.237 7.424-44.652-6.229-8.7-16.042-13.391-26.025-13.391-6.442 0-12.97 1.919-18.601 5.971-68.006 48.618-119.544 114.977-153.206 197.371-14.804 40.728 2.773 71.263 15.615 93.568 9.642 16.718 14.975 26.697 12.714 37.359-5.973 15.396-68.39 97.833-93.519 122.312-7.765 7.591-15.060 12.069-20.479 12.496-30.547 2.004-93.007-59.663-107.172-83.162-21.972-30.194-20.436-68.875 3.157-120.691 7.296-16.078 0.213-35.013-15.871-42.349-16.042-7.378-35.070-0.213-42.365 15.865-33.577 73.694-32.937 135.149 1.877 182.615 12.97 21.707 94.501 116.213 164.512 111.522zM628.041 865.256c12.501 12.496 32.766 12.496 45.266 0v0l105.337-105.296 105.38 105.296c12.501 12.496 32.766 12.496 45.266 0s12.501-32.71 0-45.206v0l-44.072-44.054c0-0.043-0.043-0.043-0.043-0.043l-61.265-61.241 105.38-105.338c12.501-12.496 12.501-32.71 0-45.206-6.272-6.269-14.463-9.382-22.655-9.382-8.149 0-16.34 3.113-22.612 9.382v0l-105.38 105.296-105.337-105.296c-6.272-6.269-14.463-9.382-22.655-9.382-8.149 0-16.34 3.113-22.612 9.382-12.501 12.496-12.501 32.71 0 45.206v0l105.38 105.338-105.38 105.338c-12.501 12.496-12.501 32.71 0 45.206z" />
<glyph unicode="&#xe91e;" glyph-name="Call-Silent" data-tags="Call Silent" d="M884.063 865.18c12.502 12.494 32.769 12.494 45.228 0 12.502-12.494 12.502-32.749 0-45.243v0l-402.997-402.756c30.721-25.671 66.647-46.949 107.096-63.58 9.302-3.369 17.707 0.469 37.249 11.727 20.096 11.513 47.532 27.206 82.647 19.829 32.598-6.311 135.47-91.126 155.055-111.339 18.39-19.189 28.545-39.231 30.251-59.742 3.157-79.272-102.659-160.974-114.776-167.754-22.742-16.588-49.58-24.988-79.789-24.988-30.038 0-63.404 8.273-99.586 25.116-78.551 32.451-183.599 108.311-284.082 204.853v0l-220.422-220.247c-12.459-12.494-32.726-12.494-45.228 0s-12.502 32.749 0 45.243v0l242.779 242.634c11.99 12.025 33.238 12.025 45.228 0 101.635-101.531 209.072-181.528 287.453-213.936 51.969-24.221 90.584-25.5 119.214-4.946 22.785 13.731 86.616 76.884 85.335 110.145-0.171 1.748-2.133 8.486-12.459 19.232-23.425 24.178-106.755 87.246-123.779 93.6-9.131 2.004-19.115-3.497-35.926-13.176-22.315-12.793-52.865-30.319-92.376-15.863-60.332 24.775-111.363 58.121-152.793 99.527-12.502 12.494-12.502 32.749 0 45.243v0zM268.856 874.628l7.968-0.135c21.633-1.791 41.686-11.94 60.674-30.233 16.043-15.436 43.052-48.783 62.722-75.050 45.441-60.552 47.703-73.387 49.025-81.105 7.211-33.986-8.576-61.405-20.054-81.404-11.264-19.573-15.147-27.931-11.307-38.335 3.285-8.102 7.211-16.801 11.35-25.287 7.766-15.863 1.195-35.052-14.72-42.77-15.872-7.718-35.030-1.194-42.796 14.669-4.779 9.85-9.344 19.957-13.526 30.361-14.934 40.34 2.645 70.871 15.488 93.216 9.6 16.716 14.976 26.779 12.715 37.482-0.128-0.043-5.504 12.324-37.377 54.795-21.121 28.144-44.673 56.501-55.937 67.417-10.624 10.191-17.408 12.153-20.566 12.452-27.563 2.175-93.016-59.656-107.352-83.238-21.931-30.105-20.267-68.782 3.456-120.592 22.401-54.411 65.196-119.867 124.163-190.355 11.35-13.56 9.558-33.73-4.011-45.073-5.973-4.989-13.27-7.462-20.523-7.462-9.174 0-18.262 3.923-24.577 11.471-63.106 75.519-109.357 146.689-133.721 205.919-33.323 72.577-32.769 134.11 2.048 181.613 7.467 12.452 87.896 116.499 164.825 111.509z" />
<glyph unicode="&#xe91f;" glyph-name="Call" data-tags="Call" d="M183.735 508.38c14.592 9.894 34.518 6.311 44.502-8.23 110.723-160.728 312.968-341.67 441.654-395.147 52.055-24.18 90.797-25.672 119.64-4.989 22.486 13.604 86.36 77.059 85.208 110.066-0.384 3.881-4.821 11.173-12.374 18.892-24.577 25.16-107.053 87.55-124.291 94.032-13.611 2.9-27.777-5.373-49.367-18.977v0l-10.923-6.781c-15.147-9.083-34.817-4.264-43.948 10.917-9.088 15.096-4.224 34.756 10.923 43.882v0l9.856 6.098c23.894 15.054 56.876 35.608 98.349 26.994 32.683-6.781 135.47-91.303 155.14-111.388 18.518-18.934 28.758-39.105 30.507-59.873 2.773-78.594-102.488-160.728-114.563-167.637-22.955-16.546-49.879-24.905-80.173-24.905-30.123 0-63.575 8.273-99.8 25.16-139.31 57.826-350.004 245.336-468.535 417.407-10.027 14.542-6.357 34.457 8.192 44.479zM268.914 874.625l7.542-0.118c22.017-1.834 42.156-12.068 61.058-30.491 20.139-19.659 104.707-122.519 111.491-155.057 7.296-35.011-8.448-62.347-19.926-82.304-11.307-19.659-15.232-28.060-11.35-38.679 28.545-69.81 72.663-126.868 130.734-168.319 14.379-10.32 17.664-30.278 7.382-44.649-6.229-8.7-16.043-13.39-26.027-13.39-6.485 0-12.971 1.962-18.603 5.97-68.012 48.658-119.555 115.056-153.22 197.403-14.806 40.726 2.773 71.259 15.616 93.563 9.643 16.717 14.976 26.696 12.715 37.357-5.973 15.395-68.354 97.742-93.528 122.263-7.766 7.633-15.062 12.111-20.481 12.538-30.55 0.725-93.016-59.66-107.181-83.157-21.974-30.193-20.438-68.871 3.157-120.685 7.296-16.077 0.213-35.011-15.872-42.346-16.128-7.292-35.030-0.256-42.369 15.864-33.58 73.648-32.94 135.141 1.877 182.605 12.971 21.706 94.509 116.079 164.527 111.516z" />
<glyph unicode="&#xe920;" glyph-name="Calling" data-tags="Calling" d="M181.958 503.267c14.288 9.79 33.898 6.287 43.702-8.186 108.648-158.957 307.257-338.042 433.672-390.999 51.161-23.884 89.248-25.36 117.531-4.937 22.040 13.503 84.807 76.25 83.676 108.911-0.377 3.84-4.735 11.056-12.151 18.736-24.135 24.896-105.087 86.589-122.015 93.003-13.492 2.743-27.235-5.275-48.395-18.651v0l-10.894-6.836c-14.875-8.988-34.233-4.093-43.116 10.802-8.967 15.022-4.148 34.475 10.727 43.463v0l9.805 6.119c23.464 14.853 55.644 35.066 96.497 26.584 32.054-6.667 133.035-90.344 152.309-110.261 18.143-18.651 28.241-38.568 29.959-59.245 2.724-77.685-100.687-158.957-112.503-165.793-22.584-16.373-49.024-24.643-78.731-24.643-29.582 0-62.432 8.186-98.006 24.812-136.847 57.304-343.795 242.845-460.111 413.11-9.847 14.347-6.243 34.053 8.045 44.012zM265.269 865.672l7.735-0.134c21.579-1.772 41.356-11.942 59.96-30.213 19.735-19.369 102.824-121.106 109.486-153.429 7.165-34.644-8.296-61.692-19.568-81.441-11.104-19.453-14.959-27.766-11.146-38.273 28.073-69.119 71.399-125.537 128.342-166.51 14.121-10.212 17.389-29.918 7.291-44.18-6.117-8.608-15.755-13.25-25.559-13.25-6.327 0-12.738 1.899-18.269 5.908-66.748 48.063-117.364 113.721-150.465 195.289-14.54 40.298 2.724 70.511 15.336 92.581 9.47 16.541 14.707 26.415 12.486 36.965-5.866 15.233-67.167 96.8-91.846 121.021-7.626 7.553-14.791 11.984-20.112 12.406-28.241 1.308-91.343-59.076-105.254-82.284-21.579-29.876-20.070-68.191 3.101-119.46 7.165-15.908 0.21-34.644-15.587-41.902-15.755-7.258-34.442-0.211-41.607 15.697-32.934 72.875-32.347 133.723 1.844 180.73 7.207 12.237 86.944 115.283 161.569 110.346zM614.032 724.987l4.191-0.446c87.153-17.090 154.446-84.859 171.457-172.629 3.31-17.132-7.794-33.8-24.847-37.134-2.011-0.38-4.064-0.549-6.076-0.549-14.707 0-27.864 10.465-30.797 25.571-12.067 62.367-59.876 110.472-121.763 122.583-17.012 3.334-28.157 20.001-24.847 37.134 3.352 17.132 20.070 27.935 36.873 25.023zM611.438 874.665l4.263-0.252c170.871-19.073 303.612-152.585 322.761-324.623 1.969-17.385-10.475-33.083-27.696-34.981-1.215-0.127-2.388-0.211-3.562-0.211-15.755 0-29.372 11.942-31.174 28.103-15.922 142.458-125.786 253.014-267.284 268.838-17.263 1.941-29.666 17.554-27.78 34.939 1.969 17.385 17.514 30.171 34.736 27.935z" />
<glyph unicode="&#xe921;" glyph-name="Camera" data-tags="Camera" d="M612.181 832c41.685-0.298 75.221-21.652 94.763-60.097 8.917-17.56 23.765-48.972 35.883-74.673 3.029-6.351 6.229-8.396 9.728-8.396 102.613 0 186.112-83.411 186.112-185.916v0-253.002c0-102.505-83.499-185.916-186.112-185.916v0h-301.141c-17.664 0-32 14.321-32 31.966s14.336 31.966 32 31.966v0h301.141c67.328 0 122.112 54.726 122.112 121.983v0 253.002c0 67.257-54.784 121.983-122.112 121.983-28.117 0-54.059 16.409-66.048 41.769-13.397 28.386-27.947 59.116-36.651 76.335-8.747 17.177-20.437 24.934-37.931 25.062v0h-200.064c-17.237-0.128-28.971-7.885-37.717-25.104-5.28-10.416-12.727-25.876-20.413-42.042l-9.215-19.46-4.463-9.463-2.517-5.328c-11.989-25.36-37.931-41.769-66.048-41.769-67.371 0-122.155-54.726-122.155-121.983v0-253.002c0-67.257 54.784-121.983 122.155-121.983v0h31.787c17.664 0 32-14.321 32-31.966s-14.336-31.966-32-31.966v0h-31.787c-102.656 0-186.155 83.411-186.155 185.916v0 253.002c0 102.505 83.499 185.916 186.155 185.916 3.541 0 6.699 2.003 8.192 5.157v0l2.517 5.285c11.904 25.275 26.197 55.536 34.859 72.585 19.541 38.487 53.12 59.841 94.507 60.139v0zM512.034 559.089c44.587 0 86.613-17.432 118.357-49.143 31.787-31.753 49.28-73.906 49.237-118.574 0.384-44.028-16.939-85.968-48.64-117.849-31.872-32.052-74.112-49.697-118.955-49.697v0c-44.928 0.043-86.997 17.56-118.656 49.313s-49.067 73.906-48.982 118.574c0 17.219 2.688 34.183 7.894 50.592 5.333 16.836 23.253 26.042 40.192 20.757 16.853-5.37 26.155-23.357 20.821-40.15-3.243-10.101-4.907-20.629-4.907-31.242-0.042-27.704 10.71-53.746 30.336-73.395 19.584-19.649 45.568-30.475 73.216-30.517v0c27.733 0 53.888 10.954 73.643 30.815 19.584 19.734 30.251 45.477 30.037 72.585 0.043 27.875-10.795 53.874-30.507 73.565-19.627 19.606-45.568 30.432-73.088 30.432v0c-7.68 0-15.232-0.81-22.613-2.429-17.28-4.006-34.347 6.99-38.187 24.166-3.883 17.219 6.997 34.353 24.235 38.146 11.904 2.728 24.192 4.049 36.48 4.049v0zM732.591 553.241c7.68 2.984 16.64 2.984 24.32 0 3.84-1.705 7.68-4.262 10.24-6.862 2.987-2.984 5.547-6.819 7.253-10.655 1.707-3.793 2.56-8.055 2.56-11.934 0-8.482-3.413-16.58-9.813-22.547-2.987-2.984-6.4-5.541-10.24-7.246s-8.107-2.174-12.373-2.174c-8.107 0-16.213 3.026-22.613 9.419-5.973 5.967-9.387 14.065-9.387 22.547 0 3.879 0.853 8.141 2.56 11.934 1.707 3.836 4.267 7.672 6.827 10.655 2.987 2.6 6.827 5.157 10.667 6.862z" />
<glyph unicode="&#xe922;" glyph-name="Category" data-tags="Category" d="M794.323 415.934c67.705-0.209 122.598-56.075 123.011-125.191v0-122.502c-0.411-69.179-55.245-125.155-123.011-125.575v0h-120.001c-67.704 0.421-122.429 56.458-122.634 125.575v0 122.502c0 69.141 54.905 125.191 122.634 125.191v0zM278.957 415.934c12.6 1.377 24.864-4.709 31.586-15.675s6.722-24.887 0-35.853c-6.722-10.966-18.986-17.052-31.586-15.675v0h-49.28c-31.433 0.001-56.972-25.9-57.179-57.987v0-120.966c0.799-31.83 25.995-57.381 57.179-57.987v0h120.754c15.13-0.102 29.675 5.962 40.409 16.848s16.77 25.694 16.77 41.139v0 181.642l-0.513 4.519c-0.568 12.018 5.196 23.592 15.34 30.158 11.412 7.386 26.076 6.951 37.048-1.099s16.050-22.101 12.828-35.497v0-180.874c0-69.353-55.074-125.575-123.011-125.575v0h-119.625c-67.35 1.426-121.613 56.821-123.011 125.575v0 122.118c0 33.269 12.972 65.17 36.052 88.659s54.369 36.633 86.959 36.531v0zM794.323 348.731h-120.001c-31.371 0-56.804-25.962-56.804-57.987v0-122.502c-0.1-15.41 5.852-30.22 16.527-41.117s25.181-16.973 40.277-16.872v0h120.001c15.096-0.102 29.603 5.974 40.277 16.872s16.627 25.706 16.527 41.117v0 122.502c0 15.379-5.986 30.128-16.639 41.003s-25.101 16.984-40.166 16.984v0zM794.323 853.333c67.203-1.629 121.245-56.967 122.634-125.575v0-122.118c0.402-33.203-12.135-65.209-34.852-88.976s-53.752-37.346-86.278-37.751v0h-49.656c-16.823 1.839-29.58 16.33-29.58 33.602s12.757 31.763 29.58 33.602v0h48.151c15.231 0.101 29.793 6.401 40.456 17.503s16.547 26.089 16.347 41.636v0 122.502c-0.405 31.852-25.601 57.573-56.803 57.987v0h-120.001c-31.371 0-56.803-25.962-56.803-57.987v0-183.178l-0.447-4.556c-2.694-16.36-16.722-28.671-33.409-28.47-8.748 0.2-17.053 3.968-23.061 10.461s-9.218 15.173-8.914 24.1v0 181.642c-0.1 33.269 12.776 65.211 35.786 88.771s54.259 36.803 86.849 36.803v0zM349.679 853.333c67.851-0.211 122.804-56.309 123.011-125.575v0-122.502c0-33.269-12.972-65.17-36.052-88.659s-54.369-36.633-86.959-36.532v0h-120.001c-67.705 0.21-122.598 56.076-123.011 125.191v0 122.502c0.411 69.179 55.245 125.155 123.011 125.575v0zM349.679 785.746h-120.001c-15.26 0.31-29.999-5.663-40.897-16.571s-17.037-25.835-17.034-41.416v0-122.502c-0.31-15.78 5.694-31.007 16.626-42.167s25.848-17.289 41.306-16.972v0h120.001c15.231 0.101 29.793 6.401 40.456 17.503s16.547 26.089 16.347 41.636v0 122.502c-0.205 31.938-25.517 57.778-56.803 57.987v0z" />
<glyph unicode="&#xe923;" glyph-name="Chart" data-tags="Chart" d="M671.859 874.667c163.987 0 266.807-102.070 266.807-266.807v0-99.068l-0.298-4.43c-2.162-15.935-15.821-28.217-32.349-28.217v0h-0.375l-5.155 0.413c-6.775 1.094-13.075 4.331-17.934 9.303-6.074 6.215-9.385 14.618-9.183 23.307v0 98.692c0 129.839-71.674 201.513-201.513 201.513v0h-319.719c-130.214 0-201.513-71.674-201.513-201.513v0-320.094c0-129.839 71.674-201.137 201.513-201.137v0h319.719c130.214 0 201.513 71.674 201.513 201.137 0 18.031 14.617 32.647 32.647 32.647s32.647-14.617 32.647-32.647c0-164.362-102.070-266.432-266.432-266.432v0h-320.094c-164.738 0-266.807 102.070-266.807 266.432v0 320.094c0 164.738 102.070 266.807 266.807 266.807v0zM330.751 552.321c8.66-0.293 16.849-4.018 22.761-10.353s9.064-14.76 8.76-23.42v0-272.811c-0.622-18.031-15.742-32.143-33.773-31.522s-32.143 15.742-31.522 33.773v0 273.187l0.582 5.105c1.309 6.692 4.716 12.846 9.793 17.528 6.347 5.853 14.774 8.919 23.398 8.513zM513.501 680.284c18.031 0 32.647-14.617 32.647-32.647v0-400.023c0-18.031-14.617-32.647-32.647-32.647s-32.647 14.617-32.647 32.647v0 400.023c0 18.031 14.617 32.647 32.647 32.647zM694.375 408.223c18.031 0 32.647-14.617 32.647-32.647v0-127.587c0-18.031-14.617-32.647-32.647-32.647s-32.647 14.617-32.647 32.647v0 127.587c0 18.031 14.617 32.647 32.647 32.647z" />
<glyph unicode="&#xe924;" glyph-name="Chat" data-tags="Chat" d="M512.288 874.667c69.024 0 137.784-17.027 198.88-49.239 208.010-109.753 288.005-368.276 178.327-576.356-74.81-141.89-222.1-227.738-377.695-227.738-30.397 0-61.095 3.27-91.643 10.036-17.209 3.834-28.068 20.898-24.273 38.113s20.816 28.002 38.138 24.281c158.901-35.332 322.949 40.932 398.961 185.115 93.259 176.884 25.25 396.729-151.611 490.019-51.927 27.401-110.393 41.872-169.121 41.872v0c-200.345 0-363.041-162.713-363.041-362.713-0.075-58.26 14.128-116.256 41.068-167.788v0l8.191-16.012c10.032-18.793 12.249-42.135 5.749-63.259-8.98-23.68-16.457-46.72-22.62-69.648 23.972 7.217 53.242 17.854 74.397 25.559v0l8.68 3.12c16.42 6.127 34.869-2.556 40.881-19.169 6.012-16.576-2.593-34.918-19.163-40.894v0l-8.567-3.12c-31.637-11.464-74.923-27.213-104.155-33.753-2.48-0.526-5.148-0.864-7.59-0.789-19.614 0-31.562 7.931-38.138 14.621-10.107 10.261-14.917 24.657-14.353 42.774 0.075 2.067 0.338 4.21 0.827 6.277 7.59 32.325 17.472 64.574 29.42 95.809 0.864 3.045 0.338 8.57-2.104 13.193v0l-8.229 15.974c-31.525 60.364-48.245 128.66-48.17 197.143 0 235.218 191.327 426.573 426.466 426.573v0zM511.815 498.795c27.993 0 50.725-22.778 50.725-50.742s-22.732-50.742-50.725-50.742c-27.993 0-50.725 22.778-50.725 50.742s22.732 50.742 50.725 50.742zM699.685 498.795c27.993 0 50.725-22.778 50.725-50.742s-22.732-50.742-50.725-50.742c-27.993 0-50.725 22.778-50.725 50.742s22.732 50.742 50.725 50.742zM323.94 498.78c27.993 0 50.725-22.74 50.725-50.742 0-27.965-22.732-50.705-50.725-50.705s-50.725 22.74-50.725 50.705c0 28.002 22.732 50.742 50.725 50.742z" />
<glyph unicode="&#xe925;" glyph-name="Close-Square" data-tags="Close Square" d="M672.137 874.671c163.712 0 266.539-102.059 266.539-266.795v0-109.611c0-17.792-14.464-32.256-32.256-32.256v0h-0.384v0.768c-18.005 0-32.597 14.549-32.64 32.555v0 108.544c0 130.261-71.253 201.515-201.131 201.515v0h-320c-129.963 0-201.643-71.68-201.643-201.515v0-320c0-129.451 71.68-201.131 201.515-201.131v0h320c129.835 0 201.131 71.68 201.131 201.131 0 18.005 14.592 32.64 32.64 32.64 18.005 0 32.64-14.635 32.64-32.64 0.128-164.48-101.931-266.539-266.283-266.539v0h-320.128c-164.736 0-266.795 102.059-266.795 266.411v0 320c0 164.864 102.059 266.923 266.795 266.923v0zM418.773 399.134c13.184 12.331 33.835 11.563 46.165-1.579 12.288-13.227 11.563-33.877-1.621-46.165v0l-29.056-29.056c-12.843-12.032-32.896-11.691-45.355 0.768v0l-0.939 0.683c-12.117 13.269-11.392 33.792 1.621 46.165v0zM394.317 580.642c12.459 12.757 32.853 13.013 45.611 0.555 0.128-0.085 0.213-0.171 0.341-0.299v0l79.573-79.616 72.405 72.448c13.013 12.416 33.536 12.288 46.421-0.299 2.304-2.304 4.267-4.907 5.76-7.808 7.381-12.843 5.248-28.971-5.205-39.467v0l-72.107-72.064 78.421-78.464c13.227-12.501 13.739-33.365 1.195-46.549-0.171-0.256-0.427-0.427-0.64-0.683-12.544-12.501-32.811-12.757-45.653-0.512v0l-1.621 1.579-203.947 203.904c-12.459 13.227-12.715 33.792-0.555 47.275z" />
<glyph unicode="&#xe926;" glyph-name="Danger" data-tags="Danger" d="M453.564 816.909c58.325 32.256 131.925 11.093 164.139-47.189v0l310.272-542.976c0.725-1.237 1.323-2.56 1.877-3.883 5.077-12.501 7.979-25.685 8.704-39.168 1.664-32.213-9.301-63.104-30.933-87.083-21.589-23.979-51.243-38.101-83.456-39.723v0l-458.965-0.043c-17.664 0-32 14.336-32 32s14.336 32 32 32v0h457.344c13.483 0.768 27.392 7.339 37.589 18.645 10.155 11.264 15.275 25.728 14.507 40.875-0.299 5.717-1.451 11.349-3.456 16.725v0l-309.291 541.269c-15.317 27.691-49.92 37.675-77.312 22.528-9.344-5.163-16.981-12.8-22.144-22.144v0l-309.547-541.696c-4.992-13.568-4.651-28.288 0.981-41.643 5.888-13.952 16.853-24.789 30.891-30.464 5.931-2.432 12.075-3.797 18.432-4.139 17.621-0.853 31.232-15.915 30.336-33.579-0.853-17.067-15.019-30.379-31.957-30.379-0.555 0-1.067 0-1.621 0.043-13.568 0.683-26.795 3.627-39.339 8.747-29.781 12.117-53.12 35.157-65.664 64.853-12.587 29.696-12.8 62.549-0.64 92.416 0.512 1.323 1.109 2.603 1.835 3.84v0l310.485 543.36c10.752 19.456 27.093 35.755 46.933 46.805zM512.060 298.074c17.664 0 32-14.123 32-31.787v0-0.427c0-17.664-14.336-32-32-32s-32 14.336-32 32c0 17.664 14.336 32.213 32 32.213zM512.060 564.437c17.664 0 32-14.336 32-32v0-120.619c0-17.664-14.336-32-32-32s-32 14.336-32 32v0 120.619c0 17.664 14.336 32 32 32z" />
<glyph unicode="&#xe927;" glyph-name="Delete" data-tags="Delete" d="M810.307 587.384c16.771-1.408 29.255-16.469 27.882-33.663-0.208-2.859-22.805-289.788-35.83-410.149-7.99-74.239-55.889-119.337-128.049-120.66-54.848-1.024-68.123-1.579-123.013-1.579-10.404 0-20.766 0-31.169 0.043-16.812 0.085-30.42 14.080-30.338 31.36 0.042 17.194 13.65 31.061 30.462 31.061v0l15.465-0.037c19.483-0.029 35.121 0.026 49.989 0.158l22.11 0.256c18.586 0.26 38.373 0.637 65.37 1.117 41.573 0.811 64.003 22.101 68.623 65.108 12.942 119.508 35.497 405.498 35.705 408.357 1.332 17.194 16.23 29.525 32.792 28.629zM213.685 587.396c16.771 0.768 31.461-11.477 32.792-28.672 0.208-2.859 22.597-288.081 35.664-408.527 4.536-42.111 26.675-63.871 65.793-64.724 16.812-0.341 30.171-14.634 29.838-31.872-0.375-17.024-13.941-30.549-30.462-30.549v0h-0.624c-69.33 1.493-117.229 47.53-125.094 120.19-13.15 121.428-35.581 407.631-35.789 410.533-1.373 17.152 11.111 32.213 27.882 33.621zM600.244 874.667c37.869 0 71.161-26.197 80.982-63.743 4.37-16.682-5.285-33.791-21.515-38.271-16.188-4.48-32.917 5.419-37.287 22.101-2.705 10.283-11.819 17.45-22.181 17.45v0h-176.488c-10.362 0-19.476-7.168-22.181-17.45v0l-9.696-50.047c-1.332-6.741-3.412-13.056-5.909-19.242v0h479.568c16.812 0 30.462-13.952 30.462-31.189 0-17.28-13.65-31.232-30.462-31.232v0h-707.118c-16.812 0-30.42 13.952-30.42 31.232 0 17.237 13.608 31.189 30.42 31.189v0h136.288c18.144 0 33.916 13.269 37.453 31.445v0l10.154 52.053c10.279 39.509 43.571 65.706 81.44 65.706v0z" />
<glyph unicode="&#xe928;" glyph-name="Discount" data-tags="Discount" d="M204.555 269.009c17.664 0 32-14.341 32-32.010 0-35.553 28.885-64.448 64.469-64.448v0h43.861c34.176-0.043 66.347-13.359 90.539-37.388v0l30.763-30.815c12.459-12.42 28.629-19.078 45.781-19.078 17.493-0.683 33.536 6.701 45.739 19.036 12.459 12.463 32.725 12.591 45.269 0.128 12.501-12.505 12.544-32.779 0.085-45.327-25.045-25.182-58.069-37.772-91.093-37.772-32.768 0-65.579 12.42-90.581 37.303v0l-31.147 31.157c-12.075 11.993-28.245 18.694-45.44 18.737v0h-43.776c-70.827 0-128.469 57.619-128.469 128.469 0 17.67 14.336 32.010 32 32.010zM722.934 787.599c70.827 0 128.469-57.619 128.469-128.511v0-43.876c0.043-17.115 6.699-33.291 18.773-45.455v0l30.635-30.645c24.277-24.115 37.717-56.338 37.846-90.696 0.085-34.358-13.184-66.667-37.376-90.995v0l-31.147-31.157c-11.861-11.951-18.688-28.468-18.731-45.412v0-43.833c0-70.85-57.643-128.511-128.469-128.511-17.664 0-32 14.341-32 32.010s14.336 32.010 32 32.010c35.584 0 64.469 28.937 64.469 64.49v0 43.876c0.043 34.23 13.312 66.411 37.419 90.568v0l30.72 30.773c12.501 12.548 19.157 28.767 19.115 46.010-0.043 17.2-6.827 33.376-19.029 45.54v0l-30.763 30.773c-24.149 24.328-37.419 56.466-37.461 90.611v0 43.918c0 35.596-28.885 64.49-64.469 64.49-17.664 0-32 14.341-32 32.010s14.336 32.010 32 32.010zM621.634 375.305c20.437 0 37.035-16.603 37.035-37.047s-16.597-37.047-37.035-37.047c-20.48 0-37.035 16.603-37.035 37.047s16.555 37.047 37.035 37.047zM599.017 580.393c12.501 12.505 32.725 12.505 45.227 0s12.501-32.779 0-45.284v0l-219.264-219.378c-6.272-6.231-14.464-9.347-22.656-9.347s-16.384 3.116-22.613 9.347c-12.501 12.505-12.501 32.779 0 45.284v0zM420.96 837.023c48.213 48.272 126.293 50.406 176.64 4.738 1.707-1.28 3.413-2.561 5.12-4.268 5.547-5.975 8.96-13.658 8.96-22.194 0-17.926-14.507-32.010-32-32.010-8.533 0-16.213 3.414-21.76 8.536-0.427 0.427-0.427 0.427-0.853 0.811-25.6 24.371-66.133 23.944-90.88-0.811v0l-30.72-30.73c-24.32-24.328-56.32-37.559-90.453-37.559v0h-43.947c-35.413 0-64.427-29.023-64.427-64.448v0-43.961c0-34.187-13.227-66.198-37.547-90.483v0l-30.72-30.773c-25.173-25.566-25.173-66.539 0-91.721 12.373-12.377 12.373-32.437 0-45.284-5.973-5.933-14.507-9.347-22.613-9.347s-16.213 2.988-22.613 9.347c-50.347 49.936-50.347 131.499-0.427 181.862v0l31.147 31.157c11.947 11.951 18.773 28.169 18.773 45.241v0 43.961c0 70.85 57.6 128.469 128.427 128.469v0h43.947c17.067 0 33.28 6.786 45.227 18.779v0zM401.944 594.124c20.437 0 37.035-16.603 37.035-37.047s-16.597-37.004-37.035-37.004c-20.437 0-37.035 16.56-37.035 37.004s16.597 37.047 37.035 37.047z" />
<glyph unicode="&#xe929;" glyph-name="Discovery" data-tags="Discovery" d="M511.831 874.666c31.226 0.039 62.355-3.48 92.786-10.489 110.863-24.403 207.386-92.155 268.095-188.182s80.568-212.363 55.158-323.125v0l-1.136-4.493c-3.346-10.198-11.452-18.268-21.884-21.467-11.923-3.655-24.886-0.335-33.591 8.603s-11.692 21.997-7.741 33.838c39.926 178.534-60.692 358.556-233.557 417.872s-362.624-21.066-440.474-186.587c-77.85-165.52-18.864-363.178 136.921-458.808s358.485-58.611 470.513 85.929v0l3.788 3.033c11.863 8.157 27.889 7.824 39.472-1.335 12.87-10.178 16.422-28.222 8.371-42.527-122.166-158.083-337.573-210.064-518.259-125.064s-278.214 284.195-234.648 479.255c43.566 195.059 216.547 333.692 416.184 333.545zM638.663 616.203c6.289 2.259 13.166 2.259 19.455 0 8.39-2.501 15.42-8.281 19.504-16.034s4.875-16.826 2.196-25.17v0l-66.596-208.643c-2.652-8.651-8.74-15.83-16.836-19.853v0l-37.414-18.729-4.429-1.257c-14.846-3.125-30.223 4.256-36.901 18.33-7.345 15.481-1.769 34.016 12.895 42.86v0l25.068 12.361 41.903 134.101-130.948-41.204-59.862-191.412-1.609-4.178c-6.837-14.705-23.636-22.464-39.546-17.547v0l-4.872 1.932c-6.241 3.071-11.394 8.067-14.656 14.317-4.077 7.813-4.86 16.935-2.172 25.33v0l65.1 208.269c3.373 10.203 11.452 18.152 21.7 21.351v0z" />
<glyph unicode="&#xe92a;" glyph-name="Document" data-tags="Document" d="M676.412 874.667c137.103 0 219.216-83.261 219.588-222.281v0-408.771c0-139.020-81.742-222.281-219.216-222.281v0h-121.869c-15.629 1.747-27.459 15.138-27.459 31.082s11.83 29.334 27.459 31.082v0h121.498c104.778 0 157.538 53.875 157.538 160.118v0 408.771c0 106.243-52.761 160.118-157.538 160.118v0h-329.196c-104.778 0-157.91-53.875-157.91-160.118v0-408.771c0-106.243 53.132-160.118 157.91-160.118 15.629-1.747 27.459-15.138 27.459-31.082s-11.83-29.334-27.459-31.082c-137.103 0-219.216 83.261-219.216 222.281v0 408.771c0 139.397 82.113 222.281 219.216 222.281v0zM665.266 298.243c16.827 0 30.467-13.831 30.467-30.893s-13.641-30.893-30.467-30.893v0h-307.646c-16.827 0-30.467 13.831-30.467 30.893s13.641 30.893 30.467 30.893v0zM665.266 479.082c11.757 1.315 23.22-4.306 29.505-14.466s6.285-23.071 0-33.231c-6.285-10.16-17.748-15.781-29.505-14.466v0h-307.646c-15.629 1.747-27.459 15.138-27.459 31.082s11.83 29.334 27.459 31.082v0zM475.030 659.544c15.629-1.747 27.459-15.138 27.459-31.082s-11.83-29.334-27.459-31.082v0h-117.039c-15.629 1.747-27.459 15.138-27.459 31.082s11.83 29.334 27.459 31.082v0z" />
<glyph unicode="&#xe92b;" glyph-name="Download" data-tags="Download" d="M748.93 652.889c104.618 0 189.737-88.486 189.737-197.242v0-216.181c0-108.49-84.906-196.799-189.31-196.799v0h-324.861c-18.133 0-32.81 15.346-32.81 34.153 0 18.895 14.677 34.197 32.81 34.197v0h324.861c68.138 0 123.604 57.616 123.604 128.449v0 216.181c0 71.099-55.637 128.937-124.031 128.937v0h-39.722c-18.133 0-32.81 15.258-32.81 34.153 0 18.85 14.677 34.153 32.81 34.153v0zM314.792 652.866c18.133 0 32.853-15.302 32.853-34.153s-14.72-34.153-32.853-34.153v0h-40.149c-68.138 0-123.604-57.66-123.604-128.449v0-216.181c0-71.099 55.637-128.937 124.031-128.937 18.133 0 32.853-15.302 32.853-34.153s-14.72-34.153-32.853-34.153c-104.618 0-189.737 88.486-189.737 197.242v0 216.181c0 108.49 84.906 196.754 189.31 196.754v0zM511.991 853.333c18.133 0 32.896-14.648 32.896-32.692v0-510.081c0-13.247-8.021-25.177-20.352-30.23-12.288-5.052-26.453-2.208-35.84 7.133v0l-124.073 124.060c-6.357 6.369-9.557 14.733-9.557 23.097s3.2 16.771 9.643 23.139c12.885 12.737 33.664 12.695 46.464-0.085v0l67.967-67.932v430.898c0 18.044 14.72 32.692 32.853 32.692zM612.744 457.598c12.757 12.822 33.536 12.949 46.464 0.255 12.928-12.652 13.013-33.329 0.256-46.236v0l-31.061-31.291c-12.715-12.822-33.536-12.949-46.421-0.212-6.528 6.369-9.771 14.775-9.771 23.224 0 8.279 3.157 16.601 9.515 23.012v0z" />
<glyph unicode="&#xe92c;" glyph-name="Edit-Square" data-tags="Edit Square" d="M907.029 473.18c17.351 0 31.454-14.038 31.454-31.403v0-168.707c0-150.573-97.012-251.737-241.461-251.737v0h-370.269c-144.407 0-241.419 101.164-241.419 251.737 0 17.323 14.146 31.403 31.497 31.403 17.394 0 31.497-14.080 31.497-31.403 0-114.775 70.002-188.888 178.425-188.888v0h370.269c108.465 0 178.553 74.113 178.553 188.888v0 168.707c0 17.366 14.060 31.403 31.454 31.403zM843.035 841.947l6.056-5.681 51.070-50.987c24.873-24.79 38.506-57.814 38.506-92.801 0-32.15-11.455-62.543-32.523-86.479l-5.983-6.365-315.054-314.543c-21.057-21.023-48.402-33.443-77.763-35.527l-8.864-0.314h-157.27c-8.462 0-16.582 3.413-22.522 9.515-4.718 4.847-7.713 11.032-8.635 17.638l-0.297 5.019 3.974 158.296c0.738 28.665 11.33 55.778 30.011 77.204l5.845 6.253 313.601 313.093c49.27 49.232 128.254 51.125 179.848 5.681zM712.556 796.279l-4.881-4.429-25.813-25.771 79.96-79.831c12.265-12.288 12.265-32.128 0-44.459-6.154-6.101-14.231-9.173-22.266-9.173-6.462 0-12.896 1.966-18.362 5.876l-3.903 3.297-79.917 79.873-243.256-242.905c-9.341-9.289-15.197-21.243-16.948-34.115l-0.531-6.504-3.12-126.039h124.962c13.627 0 26.563 4.514 37.086 12.897l5.052 4.511 315.054 314.543c25.139 25.139 26.618 65.055 4.436 91.897l-4.436 4.873-51.070 51.030c-25.179 25.098-65.161 26.575-92.046 4.429zM483.646 873.050c17.394 0 31.497-14.080 31.497-31.403 0-17.366-14.103-31.403-31.497-31.403v0h-156.886c-108.423 0-178.468-74.156-178.468-188.931v0-160.813c0-17.323-14.103-31.403-31.454-31.403-17.394 0-31.497 14.080-31.497 31.403v0 160.813c0 150.573 97.012 251.737 241.419 251.737v0z" />
<glyph unicode="&#xe92d;" glyph-name="Edit" data-tags="Edit" d="M862.758 131.199c18.35 0 33.242-15.053 33.242-33.599s-14.893-33.599-33.242-33.599v0h-282.649c-18.394 0-33.242 15.053-33.242 33.599s14.848 33.599 33.242 33.599v0zM516.482 787.693c41.753 53.938 114.886 59.225 173.791 12.589v0l61.609-48.831c26.904-21.324 45.298-49.369 51.725-79.026 7.18-33.107-0.753-66.706-22.295-94.482v0l-367.395-473.798c-18.571-23.968-46.495-37.945-76.679-38.348v0l-141.746-1.792c-15.868 0-29.298 10.752-32.799 25.984v0l-32.090 139.505c-6.826 29.702-0.089 60.479 18.527 84.447v0l48.224 62.226c11.302 14.605 32.223 17.203 46.672 5.69 14.449-11.424 16.976-32.569 5.629-47.174v0l-48.224-62.226c-6.117-7.885-8.333-17.965-6.072-27.731v0l26.018-113.163 115.019 1.434c9.884 0.134 19.059 4.704 25.176 12.589v0l367.395 473.798c9.397 12.096 12.632 25.088 9.707 38.707-3.147 14.381-12.987 28.761-27.791 40.454v0l-61.609 48.876c-23.846 18.816-57.487 28.492-80.447-1.21v0l-48.534-62.54 77.034-62.45c14.316-11.558 16.621-32.748 5.141-47.174-6.56-8.333-16.222-12.633-25.973-12.633-7.269 0-14.627 2.419-20.743 7.392v0l-76.458 61.957-125.701-162.129c-11.347-14.605-32.223-17.248-46.717-5.69-14.405 11.424-16.931 32.569-5.629 47.174v0z" />
<glyph unicode="&#xe92e;" glyph-name="Filter-2" data-tags="Filter 2" d="M814.21 831.992c45.081 0 81.79-37.775 81.79-84.212v-58.818c0-22.467-8.947-44.38-24.537-60.083l-256.468-259.439v-195.439c0-11.906-6.72-22.665-17.126-27.649l-165.923-79.505c-4.032-1.938-8.294-2.848-12.48-2.848-11.174 0-21.888 6.527-26.918 17.641-6.873 15.347-0.461 33.503 14.4 40.623l148.72 71.238v188.715c0 8.188 3.226 16.059 8.909 21.795l265.377 268.497c4.301 4.311 6.72 10.324 6.72 16.455v58.818c0 12.697-10.061 23.1-22.464 23.1h-341.715c-16.358 0-29.644 13.686-29.644 30.576 0 16.811 13.286 30.536 29.644 30.536h341.715zM328.367 832c16.358 0 29.644-13.874 29.644-30.906s-13.286-30.866-29.644-30.866h-118.615c-12.365 0-22.464-10.515-22.464-23.349v-60.772c0-5.917 2.189-11.635 6.067-15.953l244.334-271.676c5.184-5.757 8.025-13.274 8.025-21.11v-152.97c0-16.992-13.286-30.826-29.644-30.826s-29.644 13.834-29.644 30.826v140.775l-236.347 262.72c-14.246 15.873-22.080 36.503-22.080 58.213v60.772c0 46.938 36.671 85.121 81.752 85.121h118.615z" />
<glyph unicode="&#xe92f;" glyph-name="Filter" data-tags="Filter" d="M778.142 359.565c12.047 0 24.094-1.338 35.839-3.964 20.279-4.509 33.028-24.476 28.41-44.443-4.668-19.967-24.847-32.601-45.075-27.994-52.203 11.792-104.406-29.282-104.406-82.049 0-46.375 38.199-84.13 85.231-84.13 46.983 0 85.231 37.754 85.231 84.13 0 4.756-0.402 9.463-1.154 13.972-3.463 20.264 10.441 39.389 30.92 42.808 20.429 3.369 39.905-10.306 43.318-30.57 1.456-8.522 2.209-17.292 2.209-26.21 0-87.35-72.030-158.449-160.524-158.449-88.544 0-160.524 71.099-160.524 158.449 0 87.4 71.98 158.449 160.524 158.449zM431.68 238.285c20.781 0 37.646-16.648 37.646-37.16s-16.866-37.16-37.646-37.16h-308.7c-20.781 0-37.646 16.648-37.646 37.16s16.866 37.16 37.646 37.16h308.7zM245.873 853.333c88.544 0 160.524-71.049 160.524-158.449 0-87.35-71.98-158.449-160.524-158.449s-160.524 71.099-160.524 158.449c0 8.918 0.753 17.688 2.209 26.21 3.413 20.264 22.588 33.791 43.318 30.57 20.48-3.419 34.384-22.544 30.92-42.808-0.753-4.509-1.154-9.216-1.154-13.972 0-46.375 38.199-84.13 85.231-84.13s85.231 37.754 85.231 84.13c0 46.425-38.199 84.13-85.231 84.13-6.425 0-12.85-0.694-18.974-2.081-20.329-4.806-40.508 7.779-45.226 27.746s7.881 39.984 28.16 44.592c11.746 2.725 23.843 4.063 36.040 4.063zM901.010 732.059c20.781 0 37.646-16.648 37.646-37.16s-16.866-37.16-37.646-37.16h-308.65c-20.781 0-37.646 16.648-37.646 37.16s16.866 37.16 37.646 37.16h308.65z" />
<glyph unicode="&#xe930;" glyph-name="Folder" data-tags="Folder" d="M906.034 419.105c18.023 0 32.633 14.617 32.633 32.647v43.53c0 172.618-76.894 256.675-234.432 256.675h-116.278c-18.929-0.090-36.819 8.651-48.387 23.641l-37.509 49.909c-24.232 31.106-61.48 49.254-100.9 49.159h-81.77c-155.288 0-234.057-89.687-234.057-266.808v-320.094c0-164.362 102.025-266.432 266.69-266.432h319.578c164.29 0 266.69 102.070 266.69 266.432-1.796 16.781-15.951 29.507-32.821 29.507s-31.025-12.726-32.821-29.507c0-129.463-71.267-201.137-201.049-201.137h-319.953c-129.782 0-201.049 71.299-201.049 201.137v31.146h525.128c18.023 0 32.633 14.617 32.633 32.647s-14.61 32.647-32.633 32.647h-525.128v225.154c0 141.096 50.262 201.513 168.416 201.513h82.52c18.928-0.28 36.714-9.108 48.387-24.016l37.509-49.534c23.808-31.562 61.001-50.167 100.525-50.284h115.903c121.905 0 169.166-54.412 169.166-191.756v-43.53c-0.001-8.724 3.489-17.085 9.69-23.219s14.598-9.529 23.318-9.428z" />
<glyph unicode="&#xe931;" glyph-name="Game" data-tags="Game" d="M387.599 470.318c17.946 0 32.494-14.442 32.494-32.258v0-42.385h43.073c12.376 1.331 24.429-4.474 31.037-14.947s6.608-23.773 0-34.246c-6.608-10.473-18.661-16.278-31.037-14.947v0h-43.073v-42.76c-0.204-17.731-14.633-32.055-32.494-32.258v0c-18.176 0.205-32.495 14.588-32.494 32.258v0 42.76h-43.073c-12.376-1.331-24.429 4.474-31.037 14.947s-6.608 23.773 0 34.246c6.608 10.473 18.661 16.278 31.037 14.947v0h43.073v42.385l0.297 4.377c2.152 15.745 15.747 27.881 32.197 27.881zM689.864 312.029c9.212 9.159 23.046 11.964 35.138 7.127 3.885-1.803 7.456-4.209 10.579-7.127 12.42-12.494 12.331-32.604-0.2-44.989s-32.788-12.385-45.318 0c-12.53 12.385-12.62 32.495-0.2 44.989zM627.9 462.066c7.745 3.168 16.437 3.168 24.181 0 4.042-1.724 7.751-4.136 10.957-7.127 5.993-5.986 9.384-14.066 9.446-22.505 0.051-4.232-0.719-8.434-2.267-12.378-1.492-4.031-3.957-7.637-7.179-10.503-12.695-12.003-32.645-12.003-45.34 0-6.311 5.885-9.891 14.098-9.891 22.693s3.58 16.809 9.891 22.693c2.841 3.080 6.322 5.511 10.201 7.127zM938.469 468.651c-5.717 131.371-116.992 231.936-251.093 230.997-16.427-0.256-29.568-13.696-29.355-30.165 0.213-16.384 13.611-29.867 30.123-29.355 104.405 2.091 186.411-73.429 190.805-173.995 0.213-3.925 0.256-7.893 0.128-12.587v-185.131c1.109-48.683-16.853-94.805-50.475-129.92-33.621-35.2-78.933-55.125-127.659-56.192-3.968-0.085-7.979 0-13.696 0.171-118.4-2.005-236.288-2.005-352.256-0.043-101.248-4.352-185.557 73.685-189.952 173.952-0.171 4.011-0.213 8.021-0.128 12.672v185.173c-2.176 100.437 77.739 183.893 178.261 186.027 3.925 0.128 7.936 0 13.141-0.128h199.979c16.427 0 29.781 13.312 29.781 29.781v39.893c-0.853 61.781-51.499 111.659-112.896 111.659h-43.349c-6.272 0-12.203 2.432-16.725 6.869-4.608 4.437-7.168 10.453-7.211 16.853-0.171 16.341-13.483 29.483-29.739 29.483h-0.341c-16.427-0.171-29.611-13.653-29.44-30.080 0.256-22.272 9.131-43.179 25.045-58.752 15.957-15.701 36.949-22.997 59.008-23.936h42.539c29.184 0 53.205-23.637 53.547-52.437v-9.813l-168.917-0.043c-5.333 0.213-10.624 0.299-15.829 0.213-133.205-2.901-239.275-113.664-236.373-246.272v-183.893c-0.085-5.248-0.043-10.496 0.171-15.787 5.845-133.12 118.613-237.44 250.24-230.912 57.216-1.024 115.456-1.493 173.952-1.493 58.837 0 117.931 0.469 176.725 1.536 5.333-0.213 10.624-0.299 15.872-0.171 64.512 1.408 124.629 27.819 169.259 74.496 44.629 46.635 68.437 107.861 66.987 171.733v183.765c0.128 5.248 0.085 10.539-0.128 15.829z" />
<glyph unicode="&#xe932;" glyph-name="Graph" data-tags="Graph" d="M372.468 742.425c17.013 1.234 32.686-10.283 36.118-27.331 3.718-18.469-8.338-36.435-26.929-40.129-133.063-28.119-228.096-145.010-227.773-280.159-0.31-10.562 0.316-21.13 1.87-31.583 16.411-134.936 126.454-239.58 262.867-249.97s261.226 76.367 298.15 207.24v0l1.584 4.292c6.766 15.137 23.766 23.501 40.306 19.117 8.851-2.098 16.47-7.667 21.12-15.437s5.936-17.079 3.565-25.807c-25.401-92.103-87.357-170.013-171.671-215.878-103.457-56.969-228.712-58.87-333.872-5.066s-176.344 156.208-189.743 272.964c-2.174 13.636-3.050 27.445-2.618 41.244-0.181 167.308 117.891 311.76 282.752 345.926v0zM573.525 853.316c182.385-5.302 335.344-138.401 364.661-317.315v0h0.374v-5.945l0.107-6.252c-0.48-14.529-6.028-28.517-15.801-39.509-11.169-12.562-26.93-20.166-43.773-21.12v0l-280.508-18.578h-4.488c-35.57 0.074-65.155 27.204-68.070 62.423v0l-18.701 279.044c-1.124 17.602 5.256 34.863 17.579 47.56 12.756 12.98 30.366 20.112 48.621 19.693zM575.395 785.691l18.701-274.214 276.768 18.207c-25.848 143.626-148.725 250.092-295.469 256.007v0z" />
<glyph unicode="&#xe933;" glyph-name="Heart" data-tags="Heart" d="M512.251 808.968c70.196 44.884 156.11 56.367 235.296 31.45 68.872-21.418 126.142-70.615 158.495-136.154 37.83-79.435 42.979-170.965 14.306-254.283-26.392-76.701-69.661-146.233-126.495-203.273-37.264-38.301-77.419-73.566-120.095-105.472v0l-2.259-1.918c-14.178-9.545-33.244-5.796-42.918 8.438-4.918 6.874-6.893 15.485-5.474 23.868s6.11 15.823 13.004 20.622c40.044 30.173 77.799 63.379 112.942 99.335 50.612 49.806 89.261 110.836 112.942 178.343 22.777 67.268 18.167 141.026-12.8 204.807-24.919 50.175-68.827 87.843-121.601 104.321-67.313 21.443-140.648 8.444-196.895-34.902-11.182-8.439-26.465-8.439-37.647 0-56.222 43.406-129.587 56.41-196.895 34.902-53.128-16.114-97.473-53.668-122.73-103.938-30.268-63.734-34.598-137.069-12.047-204.040 23.781-67.345 62.42-128.229 112.942-177.96 74.651-72.922 156.968-137.233 245.46-191.767 11.255-7.953 16.204-22.384 12.261-35.748s-15.884-22.621-29.578-22.933c-6.173-0.037-12.212 1.836-17.318 5.37-92.182 56.797-177.912 123.812-255.625 199.821-57.15 56.852-100.578 126.433-126.871 203.273-27.683 83.203-22 174.176 15.812 253.132 32.353 65.539 89.623 114.736 158.495 136.154 79.186 24.917 165.099 13.434 235.296-31.45zM673.11 682.797l4.789-0.011c56.136-18.053 96.092-68.746 101.271-128.484v0l0.241-5.006c-0.201-6.649-2.469-13.11-6.545-18.415-5.095-6.632-12.588-10.906-20.802-11.863-17.242-2.27-33.048 10.065-35.388 27.614-1.573 35.444-24.743 66.099-57.977 76.707-12.356 7.859-17.844 23.301-13.292 37.397s17.969 23.201 32.492 22.051z" />
<glyph unicode="&#xe934;" glyph-name="Hide" data-tags="Hide" d="M827.098 801.657c12.203 12.012 31.957 12.012 44.16 0s12.203-31.459 0-43.471v0l-674.346-663.823c-6.101-6.006-14.080-9.030-22.059-9.030-8.021 0-16 3.024-22.101 9.030-12.203 12.012-12.203 31.459 0 43.429v0l221.696 218.278c-18.731 26.881-28.928 58.591-28.928 91.898 0 90.386 74.667 163.887 166.485 163.887 33.579 0 66.261-10.164 93.44-28.393v0l86.784 85.388c-122.368 78.374-271.573 71.653-388.138-19.194-61.568-47.671-114.432-117.224-153.386-201.73 17.323-37.759 37.461-72.577 59.904-103.658 9.984-13.818 6.699-33.013-7.339-42.841-5.504-3.864-11.819-5.712-18.091-5.712-9.771 0-19.371 4.452-25.472 12.936-27.392 37.927-51.584 80.726-71.851 127.221-3.371 7.728-3.371 16.548 0.043 24.276 43.563 99.29 104.917 181.528 177.536 237.767 140.714 109.58 325.546 114.998 471.722 15.162v0zM811.648 604.972c13.739 10.206 33.28 7.476 43.691-6.090 30.891-40.363 58.027-87.068 80.768-138.687 3.413-7.77 3.413-16.632 0-24.36-89.472-204.082-248.021-325.926-424.106-325.926-40.021 0-79.787 6.384-118.144 18.984-16.341 5.418-25.173 22.806-19.712 38.893 5.419 16.128 23.040 24.696 39.467 19.446 32-10.5 65.109-15.834 98.389-15.834 146.986 0 281.258 103.112 361.301 276.575-19.584 42.379-42.368 80.642-67.84 113.948-10.368 13.566-7.637 32.803 6.187 43.051zM646.032 455.044l4.195-0.464c16.981-2.982 28.288-18.942 25.216-35.701-12.117-66.697-65.835-119.618-133.589-131.757-1.877-0.294-3.755-0.462-5.632-0.462-14.763 0-27.947 10.374-30.677 25.2-3.072 16.716 8.192 32.719 25.173 35.785 42.24 7.518 75.691 40.531 83.285 82.112 3.029 16.632 19.371 27.847 36.224 24.822zM512.005 550.409c-57.387 0-104.064-45.907-104.064-102.44 0-16.674 4.523-32.551 12.203-46.957v0l139.605 137.427c-14.592 7.518-30.891 11.97-47.744 11.97z" />
<glyph unicode="&#xe935;" glyph-name="Home" data-tags="Home" d="M191.972 660.081c13.461 4.148 28.333-0.61 36.819-12.279 9.429-12.965 8.314-30.802-2.658-42.491v0l-30.052-22.261c-14.24-11.83-22.523-29.348-22.632-47.861v0-339.478c0.406-55.3 45.244-99.972 100.545-100.174v0h170.667v-0.742c18.442 0 33.391-14.95 33.391-33.391s-14.95-33.391-33.391-33.391v0h-170.667c-92.328 0.204-167.123 75-167.328 167.328v0 339.849c0.59 39.271 19.024 76.139 50.087 100.174v0l30.794 23.003zM410.528 840.533c56.337 45.285 136.59 45.285 192.928 0v0l256.371-204.429c30.378-24.433 48.213-61.191 48.603-100.174v0l-0.371-340.22c0-92.412-74.915-167.328-167.328-167.328v0h-74.203c-44.73 0-81.048 36.152-81.252 80.881v0 153.6l-0.347 3.868c-1.822 10.039-10.608 17.651-21.172 17.651v0h-111.304c-5.772 0.001-11.302-2.317-15.349-6.433s-6.27-9.685-6.17-15.457v0-58.62c0-18.442-14.95-33.391-33.391-33.391s-33.391 14.95-33.391 33.391v0 58.62c0 23.517 9.342 46.072 25.972 62.701s39.184 25.972 62.701 25.972v0h111.304c48.827-0.204 88.302-39.845 88.301-88.672v0-153.229c0-7.786 6.312-14.099 14.099-14.099v0h76.058c55.325 0 100.174 44.849 100.174 100.174v0 339.849c-0.272 18.827-8.99 36.535-23.745 48.232v0l-256.371 204.429c-32.328 26.615-78.976 26.615-111.304 0v0l-82.365-61.588c-15.265-10.962-36.527-7.474-47.49 7.791s-7.474 36.527 7.791 47.49v0z" />
<glyph unicode="&#xe936;" glyph-name="Image-2" data-tags="Image 2" d="M697.997 874.667c143.957 0 240.683-101.035 240.683-251.435v-101.12c0-16.427-13.355-29.781-29.781-29.781s-29.781 13.355-29.781 29.781v101.12c0 116.608-71.083 191.872-181.12 191.872h-371.968c-110.037 0-181.163-75.264-181.163-191.872v-350.464c0-116.608 71.125-191.872 181.163-191.872h371.925c110.037 0 181.163 75.264 181.163 191.872v46.293c-6.485 5.376-13.099 11.136-19.797 16.939-46.933 40.576-95.36 82.475-148.309 70.229-36.992-8.576-57.643-39.083-81.536-74.368-20.608-30.464-41.941-61.952-76.373-83.285-51.413-31.829-105.685-8.107-145.365 9.216l-6.571 2.859c-49.408 21.589-82.603 17.237-114.475-14.891-11.563-11.648-30.421-11.819-42.069-0.171-11.648 11.563-11.733 30.464-0.171 42.112 49.536 49.92 108.544 58.923 180.48 27.605l6.699-2.987c39.424-17.237 66.987-27.52 90.155-13.099 23.595 14.549 40.491 39.552 58.411 66.048 27.008 39.851 57.6 85.12 117.333 98.987 82.432 19.2 148.011-37.632 200.747-83.2 9.984-8.661 19.712-17.109 29.184-24.661 7.083-5.675 11.179-14.208 11.179-23.253l0.043-60.373c0-150.4-96.768-251.435-240.725-251.435h-371.925c-143.957 0-240.683 101.035-240.683 251.435v350.464c0 150.4 96.725 251.435 240.683 251.435h371.968zM377.766 694.524c60.203 0 109.141-48.981 109.141-109.141 0-60.203-48.939-109.184-109.141-109.184s-109.141 48.981-109.141 109.184c0 60.16 48.939 109.141 109.141 109.141zM377.766 634.961c-27.349 0-49.621-22.229-49.621-49.579 0-27.392 22.272-49.621 49.621-49.621 27.392 0 49.621 22.229 49.621 49.621 0 27.349-22.229 49.579-49.621 49.579z" />
<glyph unicode="&#xe937;" glyph-name="Image" data-tags="Image" d="M695.467 874.667c144.469 0 241.493-101.163 241.493-251.691v-347.776c0-150.528-97.024-251.691-241.493-251.691h-141.653c-17.664 0-32 14.336-32 32s14.336 32 32 32h141.653c107.819 0 177.493 73.685 177.493 187.691v347.776c0 114.048-69.675 187.691-177.493 187.691h-369.067c-107.563 0-177.067-73.643-177.067-187.691v-347.776c0-114.005 69.504-187.691 177.067-187.691h30.763c17.664 0 32-14.336 32-32s-14.336-32-32-32h-30.763c-144.171 0-241.067 101.163-241.067 251.691v347.776c0 150.528 96.896 251.691 241.067 251.691h369.067zM652.437 467.482c29.483 0.896 58.325-10.325 78.891-31.531l88.619-91.349c12.288-12.715 11.989-32.981-0.725-45.269-12.672-12.331-32.939-11.947-45.227 0.683l-88.619 91.349c-8.021 8.277-18.517 12.928-30.336 12.16-11.52-0.469-21.888-5.675-29.227-14.592l-95.104-115.712c-16.768-20.395-41.515-32.768-67.883-33.92-26.411-0.555-52.096 9.003-70.613 27.819l-37.803 38.571c-5.547 5.717-12.587 10.752-20.437 8.789-7.723-0.043-14.848-3.157-20.139-8.704l-65.28-68.907c-6.272-6.656-14.72-9.984-23.211-9.984-7.893 0-15.829 2.901-22.016 8.747-12.8 12.16-13.355 32.427-1.195 45.269l65.237 68.864c17.408 18.432 40.96 28.629 66.347 28.715 24.491-1.621 49.024-9.941 66.603-28.203l37.589-38.315c5.845-5.973 13.525-9.301 22.101-8.704 8.363 0.384 15.915 4.139 21.248 10.624l95.104 115.712c18.773 22.827 46.507 36.651 76.075 37.888zM365.239 677.137c58.88 0 106.795-47.915 106.795-106.837s-47.915-106.837-106.795-106.837c-58.923 0-106.837 47.915-106.837 106.837s47.915 106.837 106.837 106.837zM365.239 613.137c-23.637 0-42.837-19.2-42.837-42.837s19.2-42.837 42.837-42.837c23.595 0 42.795 19.2 42.795 42.837s-19.2 42.837-42.795 42.837z" />
<glyph unicode="&#xe938;" glyph-name="Info-Circle" data-tags="Info Circle" d="M511.996 874.675c235.264 0 426.667-191.36 426.667-426.667 0-235.264-191.403-426.667-426.667-426.667-133.419 0-256.725 60.715-338.219 166.485-10.453 13.611-7.936 33.109 5.675 43.52 13.525 10.496 32.981 7.893 43.477-5.632 69.675-90.453 175.019-142.336 289.067-142.336 201.045 0 364.629 163.541 364.629 364.629 0 201.045-163.584 364.629-364.629 364.629s-364.629-163.584-364.629-364.629c0-18.688 1.408-37.248 4.181-55.424 2.56-16.896-9.045-32.725-25.984-35.328-17.024-2.816-32.768 9.003-35.328 25.941-3.243 21.248-4.907 43.051-4.907 64.811 0 235.307 191.403 426.667 426.667 426.667zM512.431 318.050c17.664 0 32-14.336 32-32s-14.336-32-32-32c-17.664 0-32.213 14.336-32.213 32s14.123 32 31.787 32v0zM511.996 641.967c17.664 0 32-14.336 32-32v0-188.587c0-17.664-14.336-32-32-32s-32 14.336-32 32v0 188.587c0 17.664 14.336 32 32 32z" />
<glyph unicode="&#xe939;" glyph-name="Info-Square" data-tags="Info Square" d="M671.881 874.675c164.736 0 266.795-102.101 266.795-266.923v0-320c0-164.352-102.059-266.411-266.795-266.411v0h-320.128c-164.352 0-266.411 102.059-266.368 266.539 0 18.005 14.592 32.64 32.64 32.64 18.005 0 32.64-14.635 32.64-32.64 0-129.451 71.296-201.131 201.515-201.131v0h319.701c129.835 0 201.515 71.296 201.515 201.131v0 320c0 129.835-71.253 201.515-201.515 201.515v0h-319.744c-129.835 0-201.515-71.68-201.515-201.515v0-99.456c0-17.835-14.464-32.256-32.256-32.256v0h-0.469c-18.005 0-32.597 14.635-32.555 32.64v0 99.072c0 164.693 102.827 266.795 266.837 266.795v0zM511.774 506.637c17.664 0 32-14.336 32-32v-188.587c0-17.664-14.336-32-32-32s-32 14.336-32 32v188.587c0 17.664 14.336 32 32 32zM512.213 641.967c17.664 0 32-14.336 32-32s-14.336-32-32-32h-0.427c-17.664 0-31.787 14.336-31.787 32s14.549 32 32.213 32z" />
<glyph unicode="&#xe93a;" glyph-name="Location" data-tags="Location" d="M513.421 874.667c199.952-0.786 362.027-163.924 361.243-363.619v0-3.966c-2.7-142.709-88.496-261.134-159.98-335.332-20.344-21.215-41.999-41.57-64.328-60.578-13.375-11.412-33.456-9.841-44.883 3.517-11.427 13.395-9.816 33.451 3.559 44.863 20.681 17.623 40.8 36.556 59.72 56.275 63.616 66.004 139.895 170.36 142.218 292.414 0.637 167.666-132.927 302.18-297.811 302.854v0h-1.161c-164.323 0-298.336-133.205-298.973-297.428 2.81-81.12 30.234-158.237 79.351-222.931 57.322-76.331 144.279-157.152 226.927-210.957 14.761-9.579 18.92-29.26 9.291-44.002-6.069-9.354-16.297-14.443-26.713-14.443-5.957 0-11.951 1.646-17.346 5.164-88.493 57.585-181.632 144.168-243.037 225.924-56.985 75.096-88.868 164.71-92.165 259.038 0.787 201.678 163.349 363.207 362.664 363.207v0zM511.885 644.975c76.092 0 138.022-61.813 138.022-137.844 0-75.994-61.93-137.807-138.022-137.807s-138.022 61.813-138.022 137.807c0 17.586 14.274 31.804 31.845 31.804s31.845-14.218 31.845-31.804c0-40.897 33.344-74.235 74.331-74.235s74.331 33.339 74.331 74.235c0 40.934-33.344 74.273-74.331 74.273-17.571 0-31.845 14.218-31.845 31.767 0 17.586 14.274 31.804 31.845 31.804z" />
<glyph unicode="&#xe93b;" glyph-name="Lock" data-tags="Lock" d="M512.564 874.667c126.584 0 229.708-101.461 229.708-226.176v0-68.139c76.801-26.496 132.395-97.707 132.395-182.229v0-182.997c0-106.88-88.379-193.792-197.010-193.792v0h-146.793c-17.953 0-32.524 14.336-32.524 32s14.571 32 32.524 32v0h145.535c72.768 0 131.918 58.197 131.918 129.792 0 2.219 0.824 4.139 1.301 6.187v0 176.811c0 71.595-59.194 129.792-131.962 129.792v0h-331.313c-72.768 0-131.962-58.197-131.962-129.792v0-176.811c0.434-2.048 1.258-3.968 1.258-6.187 0-71.595 59.194-129.792 131.962-129.792 17.953 0 32.524-14.336 32.524-32s-14.571-32-32.524-32v0l-0.867 0.085c-0.13 0-0.26-0.085-0.39-0.085-108.631 0-197.010 86.912-197.010 193.792v0 182.997c0 84.523 55.551 155.733 132.352 182.229v0 68.139c0.564 125.355 103.6 226.176 229.881 226.176v0zM511.991 386.014c17.953 0 32.524-14.336 32.524-32v0-94.763c0-17.664-14.571-32-32.524-32s-32.524 14.336-32.524 32v0 94.763c0 17.664 14.571 32 32.524 32zM512.434 810.667h-0.737c-90.678 0-164.529-72.277-164.963-161.451v0-57.301h330.489v56.576c0 89.429-73.938 162.176-164.789 162.176v0z" />
<glyph unicode="&#xe93c;" glyph-name="Login" data-tags="Login" d="M341.286 283.645c18.85 0 34.153-14.72 34.153-32.853v0-40.149c0-68.138 57.66-123.604 128.449-123.604v0h216.181c71.099 0 128.937 55.637 128.937 124.031 0 18.133 15.302 32.853 34.153 32.853s34.153-14.72 34.153-32.853c0-104.618-88.486-189.737-197.242-189.737v0h-216.181c-108.49 0-196.754 84.906-196.754 189.31v0 40.149c0 18.133 15.302 32.853 34.153 32.853zM649.44 480.887c13.247 0 25.177-8.021 30.23-20.352 5.052-12.288 2.208-26.453-7.133-35.84v0l-124.060-124.073c-6.369-6.357-14.733-9.557-23.097-9.557s-16.771 3.2-23.139 9.643c-12.737 12.885-12.695 33.664 0.085 46.464v0l67.932 67.967h-430.898c-18.044 0-32.692 14.72-32.692 32.853s14.648 32.896 32.692 32.896v0zM720.535 874.667c108.49 0 196.799-84.906 196.799-189.31v0-324.861c0-18.133-15.346-32.81-34.153-32.81-18.895 0-34.197 14.677-34.197 32.81v0 324.861c0 68.138-57.616 123.604-128.449 123.604v0h-216.181c-71.099 0-128.937-55.637-128.937-124.031v0-39.722c0-18.133-15.258-32.81-34.153-32.81-18.85 0-34.153 14.677-34.153 32.81v0 39.722c0 104.618 88.486 189.737 197.242 189.737v0zM502.147 595.207c12.652 12.928 33.329 13.013 46.236 0.256v0l31.291-31.061c12.822-12.715 12.949-33.536 0.212-46.421-6.369-6.528-14.775-9.771-23.224-9.771-8.279 0-16.601 3.157-23.012 9.515v0l-31.249 31.018c-12.822 12.757-12.949 33.536-0.255 46.464z" />
<glyph unicode="&#xe93d;" glyph-name="Logout" data-tags="Logout" d="M624.998 291.835c17.661 0 31.997-13.985 31.997-31.212v0-38.143c0-99.149-82.693-179.813-184.376-179.813v0h-202.535c-101.849 0-184.75 80.867-184.75 180.259 0 17.227 14.336 31.171 31.997 31.171s31.997-13.944 31.997-31.171c0-65.018 54.187-117.835 120.757-117.835v0h202.535c66.404 0 120.383 52.655 120.383 117.389v0 38.143c0 17.227 14.336 31.212 31.997 31.212zM906.66 479.244c12.965 0 24.642-7.621 29.587-19.335 4.945-11.674 2.161-25.132-6.981-34.049v0l-121.421-117.916c-6.275-6.040-14.419-9.12-22.605-9.12s-16.414 3.081-22.647 9.201c-12.466 12.242-12.466 31.982 0.083 44.143v0l66.528 64.613h-421.775c-17.661 0-32.038 13.985-32.038 31.212s14.378 31.252 32.038 31.252v0zM472.211 853.333c101.891 0 184.792-80.867 184.792-180.259v0-37.738c0-17.187-14.336-31.171-31.997-31.171s-31.997 13.985-31.997 31.171v0 37.738c0 65.018-54.187 117.835-120.798 117.835v0h-202.494c-66.404 0-120.383-52.695-120.383-117.389v0-308.674c0-17.227-14.336-31.212-31.997-31.212s-31.997 13.985-31.997 31.212v0 308.674c0 99.148 82.693 179.813 184.376 179.813v0zM762.509 587.833c12.466 12.323 32.662 12.404 45.253 0.243v0l30.584-29.509c12.591-12.16 12.674-31.901 0.249-44.143-6.275-6.161-14.502-9.283-22.73-9.283-8.145 0-16.289 3.040-22.522 9.039v0l-30.625 29.55c-12.549 12.12-12.632 31.901-0.208 44.102z" />
<glyph unicode="&#xe93e;" glyph-name="Message" data-tags="Message" d="M691.083 832c136.565-0.418 247.169-111.838 247.584-249.41v0-62.352l-0.276-4.127c-1.999-14.846-14.632-26.289-29.918-26.289v0l-0.377 0.76-4.752 0.379c-6.247 1.003-12.068 3.966-16.598 8.53-5.662 5.704-8.843 13.44-8.843 21.507v0 61.592c-1.022 103.509-84.069 187.168-186.82 188.198v0h-358.166c-102.751-1.030-185.798-84.689-186.82-188.198v0-269.18c1.022-103.509 84.069-187.168 186.82-188.198v0h358.166c102.751 1.030 185.798 84.689 186.82 188.198 1.727 15.589 14.811 27.38 30.382 27.38s28.654-11.79 30.382-27.38c-0.414-137.572-111.019-248.992-247.584-249.41v0h-358.166c-136.651 0.209-247.376 111.751-247.584 249.41v0 269.18c0 137.745 110.847 249.41 247.584 249.41v0zM268.562 602.158c7.947 0.858 15.904-1.535 22.084-6.641v0l177.385-141.434c22.158-17.513 53.325-17.513 75.483 0v0l175.498 141.434h0.377l3.7 2.545c12.751 7.459 29.316 4.707 38.948-7.108 5.047-6.336 7.369-14.442 6.447-22.513s-5.010-15.434-11.353-20.45v0l-175.498-141.814c-44.624-36.175-108.229-36.175-152.853 0v0l-175.875 141.814-3.247 3.11c-9.918 10.991-10.725 27.885-1.282 39.853 4.966 6.309 12.239 10.346 20.186 11.203z" />
<glyph unicode="&#xe93f;" glyph-name="More-Circle" data-tags="More Circle" d="M512.009 874.675c235.264 0 426.667-191.36 426.667-426.667 0-235.264-191.403-426.667-426.667-426.667-133.461 0-256.725 60.715-338.219 166.485-10.453 13.611-7.936 33.109 5.632 43.52 13.568 10.496 33.024 7.893 43.52-5.632 69.632-90.453 175.019-142.336 289.067-142.336 201.045 0 364.587 163.541 364.587 364.629 0 201.045-163.541 364.629-364.587 364.629s-364.629-163.584-364.629-364.629c0-18.688 1.408-37.248 4.181-55.424 2.56-16.896-9.088-32.725-25.984-35.328-17.024-2.816-32.768 9.003-35.371 25.941-3.243 21.248-4.864 43.051-4.864 64.811 0 235.307 191.403 426.667 426.667 426.667zM320.87 499.038c28.203 0 51.115-22.912 51.115-51.029 0-28.16-22.912-51.072-51.115-51.072-28.16 0-51.115 22.912-51.115 51.072 0 28.117 22.955 51.029 51.115 51.029zM511.996 499.038c28.16 0 51.115-22.912 51.115-51.029 0-28.16-22.955-51.072-51.115-51.072-28.203 0-51.115 22.912-51.115 51.072 0 28.117 22.912 51.029 51.115 51.029zM703.1 499.038c28.203 0 51.115-22.912 51.115-51.029 0-28.16-22.912-51.072-51.115-51.072-28.16 0-51.115 22.912-51.115 51.072 0 28.117 22.955 51.029 51.115 51.029z" />
<glyph unicode="&#xe940;" glyph-name="More-Square" data-tags="More Square" d="M671.863 874.675c164.736 0 266.795-102.101 266.795-266.923v0-320c0-164.352-102.059-266.411-266.795-266.411v0h-320.128c-164.352 0-266.411 102.059-266.368 266.539 0 18.005 14.635 32.64 32.64 32.64 18.048 0 32.64-14.635 32.64-32.64 0-129.451 71.296-201.131 201.515-201.131v0h319.701c129.835 0 201.515 71.296 201.515 201.131v0 320c0 129.835-71.253 201.515-201.515 201.515v0h-319.744c-129.835 0-201.515-71.68-201.515-201.515v0-99.456c0-17.835-14.421-32.256-32.256-32.256v0h-0.469c-18.005 0-32.597 14.635-32.555 32.64v0 99.072c0 164.693 102.827 266.795 266.837 266.795v0zM320.875 499.038c28.203 0 51.115-22.912 51.115-51.029 0-28.16-22.912-51.072-51.115-51.072-28.16 0-51.115 22.912-51.115 51.072 0 28.117 22.955 51.029 51.115 51.029zM512 499.038c28.203 0 51.115-22.912 51.115-51.029 0-28.16-22.912-51.072-51.115-51.072-28.16 0-51.115 22.912-51.115 51.072 0 28.117 22.955 51.029 51.115 51.029zM703.104 499.038c28.203 0 51.115-22.912 51.115-51.029 0-28.16-22.912-51.072-51.115-51.072-28.16 0-51.115 22.912-51.115 51.072 0 28.117 22.955 51.029 51.115 51.029z" />
<glyph unicode="&#xe941;" glyph-name="Notification" data-tags="Notification" d="M581.998 125.036c11.837 10.564 30.004 11.219 42.643 0.852 13.903-11.404 15.852-31.826 4.353-45.614-28.346-36.762-72.2-58.508-118.861-58.941v0l-9.264 0.39c-43.021 3.122-82.839 24.336-109.219 58.551v0l-2.804 3.913c-8.242 13.514-5.482 31.334 7.157 41.701 13.903 11.404 34.494 9.471 45.993-4.317 5.050-6.695 11.041-12.637 17.791-17.645 18.043-13.322 40.7-18.951 62.945-15.639s42.236 15.294 55.538 33.284v0h0.379zM510.512 874.667c130.975 0 277.848-92.354 294.504-240.645v0-77.337c5.686-27.913 18.75-53.825 37.854-75.084 1.132-1.284 2.145-2.666 3.028-4.13 17.321-26.074 27.257-56.285 28.769-87.473v0l-1.136-7.884c1.305-42.68-12.94-84.396-40.125-117.507-34.716-37.46-82.177-60.861-133.246-65.699-125.796-13.809-252.744-13.809-378.539 0-50.323 5.167-96.957 28.56-130.975 65.699-27.633 32.636-42.305 74.152-41.261 116.756v0 5.256c2.081 32.121 12.799 63.103 31.040 89.726v0l3.028 3.754c18.97 21.349 32.015 47.224 37.854 75.084v0 77.337l2.093 4.32c6.364 10.968 18.759 17.383 31.741 15.979 14.604-1.58 26.332-12.665 28.625-27.057v0-77.337c0.147-1.373 0.147-2.757 0-4.13-7.882-38.731-25.897-74.724-52.238-104.367-10.144-16.026-15.886-34.404-16.656-53.31v0-8.259c-0.84-26.591 8.032-52.588 24.984-73.207 23.502-24.075 54.93-38.994 88.578-42.047 121.783-13.14 244.643-13.14 366.426 0 34.567 3.147 66.763 18.778 90.471 43.924 16.119 20.132 24.564 45.257 23.848 70.955v0 8.635c-0.777 18.97-6.376 37.437-16.277 53.685-27.437 29.307-46.513 65.329-55.267 104.367-0.147 1.373-0.147 2.757 0 4.13v0 77.712c-10.978 113.377-124.918 183.581-224.095 183.581-42.165 0.096-83.636-10.639-120.375-31.16v0l-4.5-2.234c-9.251-3.735-19.834-3.080-28.63 1.99-10.262 5.915-16.465 16.9-16.188 28.669s6.991 22.455 17.521 27.888c45.525 25.507 96.858 39.074 149.144 39.419z" />
<glyph unicode="&#xe942;" glyph-name="Paper-Download" data-tags="Paper Download" d="M616.087 874.667c0.893 0 1.616-0.43 2.467-0.515v0h8.72c8.677 0 16.972-3.565 23.012-9.923v0l215.49-226.639c5.7-6.014 8.89-14.004 8.89-22.337v0-394.728c0-107.993-87.242-199.19-190.564-199.19v0h-339.782c-109.361 0-194.988 87.503-194.988 199.19v0 107.649c0 17.784 14.292 32.217 31.902 32.217s31.902-14.433 31.902-32.217v0-107.649c0-76.806 56.361-134.755 131.183-134.755v0h339.782c68.739 0 126.759 61.729 126.759 134.755v0 381.798l-162.872 171.311v-56.187c0-43.128 34.752-78.31 77.459-78.396 17.61-0.043 31.86-14.476 31.817-32.303-0.043-17.741-14.292-32.132-31.902-32.132v0c-77.842 0.172-141.179 64.22-141.179 142.831v0 92.271h-239.864c-71.121 0-131.183-58.593-131.183-127.968v0-178.442c0-17.784-14.292-32.217-31.902-32.217s-31.902 14.433-31.902 32.217v0 178.442c0 104.299 89.284 192.403 194.988 192.403v0h269.299c0.851 0.086 1.616 0.515 2.467 0.515zM495.594 587.248c17.61 0 31.902-14.433 31.902-32.217v0-204.302l66.187 67.141c12.463 12.629 32.626 12.629 45.131 0.086s12.548-32.948 0.128-45.577v0l-120.719-122.469c-0.043 0-0.085-0.043-0.128-0.043-2.892-2.921-6.338-5.284-10.166-6.916-3.871-1.632-8.039-2.491-12.336-2.491s-8.465 0.859-12.336 2.491c-3.828 1.632-7.316 4.038-10.251 6.959v0l-120.761 122.469c-12.421 12.629-12.378 33.034 0.085 45.577 12.506 12.543 32.711 12.543 45.131-0.086v0l66.229-67.184v204.345c0 17.784 14.292 32.217 31.902 32.217z" />
<glyph unicode="&#xe943;" glyph-name="Paper-Fail" data-tags="Paper Fail" d="M616.087 874.667c0.893 0 1.616-0.43 2.467-0.515v0h8.72c8.677 0 16.972-3.565 23.012-9.922v0l215.49-226.628c5.7-6.014 8.89-14.003 8.89-22.336v0-399.519c0-107.171-85.456-194.412-190.564-194.412v0h-335.316c-111.829 0-199.454 85.393-199.454 194.412v0 107.644c0 17.783 14.292 32.216 31.902 32.216s31.902-14.433 31.902-32.216v0-107.644c0-74.096 58.318-129.98 135.649-129.98v0h335.316c69.93 0 126.759 58.332 126.759 129.98v0 386.59l-162.872 171.259v-56.184c0-43.126 34.752-78.263 77.459-78.349 17.61-0.043 31.86-14.476 31.817-32.302-0.043-17.74-14.292-32.13-31.902-32.13v0c-77.842 0.172-141.179 64.217-141.179 142.781v0 92.309h-244.373c-69.845 0-126.674-57.387-126.674-127.961v0-183.244c0-17.783-14.292-32.216-31.902-32.216s-31.902 14.433-31.902 32.216v0 183.244c0 106.098 85.456 192.393 190.479 192.393v0h273.85c0.851 0.086 1.574 0.515 2.425 0.515zM407.973 503.020c12.463 12.586 32.668 12.586 45.131 0v0l51.129-51.674 51.171 51.674c12.463 12.586 32.626 12.586 45.089 0s12.463-32.946 0-45.532v0l-51.129-51.674 51.129-51.631c12.463-12.586 12.463-32.989 0-45.575-6.21-6.271-14.377-9.45-22.544-9.45s-16.334 3.179-22.544 9.45v0l-51.171 51.631-51.129-51.631c-6.253-6.271-14.42-9.45-22.587-9.45s-16.334 3.179-22.544 9.45c-12.463 12.586-12.463 32.989 0 45.575v0l51.171 51.631-51.171 51.674c-12.463 12.586-12.463 32.946 0 45.532z" />
<glyph unicode="&#xe944;" glyph-name="Paper-Negative" data-tags="Paper Negative" d="M616.087 874.667c0.893 0 1.616-0.43 2.467-0.515v0h8.72c8.677 0 16.972-3.565 23.012-9.922v0l215.49-226.628c5.7-6.014 8.89-14.003 8.89-22.336v0-399.519c0-107.171-85.456-194.412-190.564-194.412v0h-339.782c-111.191 0-194.988 83.589-194.988 194.412v0 107.644c0 17.783 14.292 32.216 31.902 32.216s31.902-14.433 31.902-32.216v0-107.644c0-75.299 55.17-129.98 131.183-129.98v0h339.782c69.93 0 126.759 58.332 126.759 129.98v0 386.59l-162.872 171.259v-56.184c0-43.126 34.752-78.263 77.459-78.349 17.61-0.043 31.86-14.476 31.817-32.302-0.043-17.74-14.292-32.13-31.902-32.13v0c-77.842 0.172-141.179 64.217-141.179 142.781v0 92.309h-239.864c-71.121 0-131.183-58.59-131.183-127.961v0-183.244c0-17.783-14.292-32.216-31.902-32.216s-31.902 14.433-31.902 32.216v0 183.244c0 104.293 89.284 192.393 194.988 192.393v0h269.299c0.851 0.086 1.574 0.515 2.467 0.515zM608.481 402.275c17.61 0 31.902-14.433 31.902-32.216s-14.292-32.216-31.902-32.216v0h-208.472c-17.61 0-31.902 14.433-31.902 32.216s14.292 32.216 31.902 32.216v0z" />
<glyph unicode="&#xe945;" glyph-name="Paper-Plus" data-tags="Paper Plus" d="M616.087 874.667c0.893 0 1.616-0.43 2.467-0.515v0h8.72c8.677 0 16.972-3.565 23.012-9.922v0l215.49-226.628c5.7-6.014 8.89-14.003 8.89-22.336v0-399.519c0-107.171-85.456-194.412-190.564-194.412v0h-339.782c-111.191 0-194.988 83.589-194.988 194.412v0 107.644c0 17.783 14.292 32.216 31.902 32.216s31.902-14.433 31.902-32.216v0-107.644c0-75.299 55.17-129.98 131.183-129.98v0h339.782c69.93 0 126.759 58.332 126.759 129.98v0 386.59l-162.872 171.259v-56.184c0-43.126 34.752-78.263 77.459-78.349 17.61-0.043 31.86-14.476 31.817-32.302-0.043-17.74-14.292-32.13-31.902-32.13v0c-77.842 0.172-141.179 64.217-141.179 142.781v0 92.309h-239.864c-71.121 0-131.183-58.59-131.183-127.961v0-183.244c0-17.783-14.292-32.216-31.902-32.216s-31.902 14.433-31.902 32.216v0 183.244c0 104.293 89.284 192.393 194.988 192.393v0h269.299c0.893 0.086 1.616 0.515 2.467 0.515zM504.216 543.303c17.61 0 31.902-14.433 31.902-32.216v0-73.066h72.355c17.61 0 31.902-14.433 31.902-32.216s-14.292-32.216-31.902-32.216v0h-72.355v-73.023c0-17.783-14.292-32.216-31.902-32.216s-31.902 14.433-31.902 32.216v0 73.023h-72.312c-17.61 0-31.902 14.433-31.902 32.216s14.292 32.216 31.902 32.216v0h72.312v73.066c0 17.783 14.292 32.216 31.902 32.216z" />
<glyph unicode="&#xe946;" glyph-name="Paper-Upload" data-tags="Paper Upload" d="M616.087 874.667c0.893 0 1.616-0.43 2.467-0.515v0h8.72c8.677 0 16.972-3.565 23.012-9.923v0l215.49-226.639c5.7-6.014 8.89-14.004 8.89-22.337v0-394.728c0-107.993-87.242-199.19-190.564-199.19v0h-339.782c-109.361 0-194.988 87.503-194.988 199.19v0 107.649c0 17.784 14.292 32.217 31.902 32.217s31.902-14.433 31.902-32.217v0-107.649c0-76.806 56.361-134.755 131.183-134.755v0h339.782c68.739 0 126.759 61.729 126.759 134.755v0 381.798l-162.872 171.311v-56.187c0-43.128 34.752-78.31 77.459-78.396 17.61-0.043 31.86-14.476 31.817-32.303-0.043-17.741-14.292-32.132-31.902-32.132v0c-77.842 0.172-141.179 64.22-141.179 142.831v0 92.271h-239.864c-71.121 0-131.183-58.593-131.183-127.968v0-178.442c0-17.784-14.292-32.217-31.902-32.217s-31.902 14.433-31.902 32.217v0 178.442c0 104.299 89.284 192.403 194.988 192.403v0h269.299c0.893 0.086 1.616 0.515 2.467 0.515zM495.594 587.24c8.848 0 16.802-3.608 22.587-9.408v0-0.043l120.761-122.469c12.421-12.629 12.378-33.034-0.085-45.577-6.253-6.229-14.377-9.365-22.544-9.365s-16.334 3.136-22.587 9.45v0l-66.229 67.227v-204.388c0-17.784-14.292-32.217-31.902-32.217s-31.902 14.433-31.902 32.217v0 204.388l-66.229-67.227c-12.421-12.629-32.626-12.629-45.131-0.086-12.463 12.543-12.506 32.948-0.085 45.577v0l120.761 122.469c0 0.043 0 0.043 0 0.043l3.725 3.205c5.291 3.893 11.818 6.202 18.862 6.202z" />
<glyph unicode="&#xe947;" glyph-name="Paper" data-tags="Paper" d="M616.129 874.667c0.851 0 1.574-0.43 2.425-0.515v0h8.763c8.677 0 16.972-3.565 23.012-9.923v0l215.448-226.639c5.7-6.014 8.89-14.004 8.89-22.337v0-393.74c0-108.508-87.242-200.178-190.521-200.178v0h-339.825c-109.319 0-194.988 87.932-194.988 200.178v0 107.649c0 17.784 14.292 32.217 31.902 32.217s31.902-14.433 31.902-32.217v0-107.649c0-76.119 57.637-135.743 131.183-135.743v0h339.825c67.506 0 126.716 63.447 126.716 135.743v0 380.81l-162.83 171.268v-56.144c0-43.128 34.71-78.31 77.417-78.396 17.61-0.043 31.86-14.476 31.817-32.303-0.043-17.741-14.292-32.132-31.902-32.132v0c-77.842 0.172-141.136 64.22-141.136 142.831v0 92.271h-239.906c-71.121 0-131.183-58.593-131.183-127.968v0-177.454c0-17.784-14.292-32.217-31.902-32.217s-31.902 14.433-31.902 32.217v0 177.454c0 104.299 89.284 192.403 194.988 192.403v0h269.341c0.851 0.086 1.574 0.515 2.467 0.515zM608.069 324.474c17.61 0 31.902-14.433 31.902-32.217s-14.292-32.217-31.902-32.217v0h-229.612c-17.61 0-31.902 14.433-31.902 32.217s14.292 32.217 31.902 32.217v0zM521.209 537.204c17.61 0 31.902-14.433 31.902-32.217s-14.292-32.217-31.902-32.217v0h-142.753c-17.61 0-31.902 14.433-31.902 32.217s14.292 32.217 31.902 32.217v0z" />
<glyph unicode="&#xe948;" glyph-name="Password" data-tags="Password" d="M696.934 874.675c144.597 0 241.749-101.461 241.749-252.416v0-348.501c0-150.955-97.195-252.416-241.792-252.416v0h-229.547c-17.664 0-32 14.336-32 32s14.336 32 32 32v0h229.547c107.989 0 177.792 73.941 177.792 188.416v0 348.501c0 114.475-69.803 188.416-177.749 188.416v0h-369.877c-107.947 0-177.707-73.941-177.707-188.416v0-348.501c0-114.475 69.76-188.416 177.707-188.416 17.664 0 32-14.336 32-32s-14.336-32-32-32c-144.597 0-241.707 101.461-241.707 252.416v0 348.501c0 150.955 97.109 252.416 241.707 252.416v0zM377.19 559.002c50.048 0 91.904-33.451 105.728-78.976v0h242.859c17.664 0 32-14.336 32-32v0-79.019c0-17.664-14.336-32-32-32s-32 14.336-32 32v0 47.019h-56.704v-47.019c0-17.664-14.336-32-32-32s-32 14.336-32 32v0 47.019h-90.155c-13.824-45.568-55.68-79.019-105.728-79.019-61.184 0-110.976 49.792-110.976 111.019 0 15.829 3.243 31.104 9.728 45.525 7.253 16.128 26.112 23.339 42.325 16.043 16.128-7.211 23.296-26.155 16.043-42.283-2.731-6.101-4.096-12.587-4.096-19.285 0-25.941 21.077-47.019 46.976-47.019 25.941 0 47.019 21.077 47.019 47.019 0 25.899-21.077 46.976-47.019 46.976-17.664 0-32 14.336-32 32s14.336 32 32 32z" />
</font>
</defs>
</svg>
